Важное объявление!
У Нас Все раздачи мультитрекерные, при нуле пиров в релизах, можете смело вставать на закачку!
 
Автор Сообщение

HUNTER

Стаж:
4 года 4 месяца
Сообщений:
56842

Репутация: 101

[+] [-]
Вне форума [Профиль] [ЛС]

Карантин / Quarantine-
Год выпуска: 2008
Выпущено: США
Жанр: ужасы, триллер
Продолжительность: 01:29:15
Перевод: Профессиональный (полное дублирование) Blu-Ray CEE
Оригинальная звуковая дорожка: English
Субтитры: Ukrainian, English-Режиссер: Джон Эрик Даудл / John Erick Dowdle
В ролях: Дженнифер Карпентер, Стив Харрис, Джей Эрнандес, Джонатон Шек, Коламбус Шорт, Эндрю Фисцелла, Раде Шербеджия, Грег Джерманн, Бернард Уайт, Даня Рамирес
О фильме: Телерепортер Анжела Видал и ее оператор делают репортаж о ночной смене лос-анджелесского пожарного управления. Рутинный вызов в охваченное огнем здание приводит их к оцепленному полицией дому, из стен которого доносятся страшные крики. Оказывается, что живущая здесь женщина заразилась неизвестным вирусом. И когда власти объявляют карантин, изолируя всех, кто оказался в помещении, внутри здания, единственным свидетельством произошедшего остается злополучный репортаж.-SbR!
Релиз:
Формат: MKV
Видео: 1920x814 at 23.976 fps, x264@L4.1, crf, ~14929 kbps
Аудио #01: Russian: 48 kHz, AC3, 3/2 (L,C,R,l,r) + LFE ch, ~640.00 kbps avg |Дубляж, Blu-Ray CEE|
Аудио #02: English: 48 kHz, DTS, 3/2 (L,C,R,l,r) + LFE ch, 1509 kbps
Семпл-

Source vs Encode






-

mInfo

Формат : Matroska
Версия формата : Version 4 / Version 2
Размер файла : 10,4 Гбайт
Продолжительность : 1 ч. 29 м.
Общий поток : 16,8 Мбит/сек
Название фильма : Quarantine (2008) - Release for HDCLUB by SbR
Дата кодирования : UTC 2015-03-08 09:15:46
Программа кодирования : mkvmerge v7.7.0 ('Six Voices') 64bit built on Feb 28 2015 23:39:33
Библиотека кодирования : libebml v1.3.1 + libmatroska v1.4.2
Attachements : xlog.txt / cover.jpg
Видео
Идентификатор : 1
Формат : AVC
Формат/Информация : Advanced Video Codec
Профиль формата : High@L4.1
Параметр CABAC формата : Да
Параметр ReFrames формата : 4 кадра
Идентификатор кодека : V_MPEG4/ISO/AVC
Продолжительность : 1 ч. 29 м.
Битрейт : 14,3 Мбит/сек
Ширина : 1920 пикселей
Высота : 1080 пикселей
Соотношение сторон : 16:9
Режим частоты кадров : Постоянный
Частота кадров : 23,976 кадра/сек
Цветовое пространство : YUV
Субдискретизация насыщенности : 4:2:0
Битовая глубина : 8 бит
Тип развёртки : Прогрессивная
Бит/(Пиксели*Кадры) : 0.287
Размер потока : 8,90 Гбайт (85%)
Заголовок : Release for HDCLUB
Библиотека кодирования : x264 core 144 r2525kMod 40bb568
Настройки программы : cabac=1 / ref=4 / deblock=1:-2:-2 / analyse=0x3:0x133 / me=umh / subme=11 / psy=1 / fade_compensate=0.00 / psy_rd=1.00:0.00 / mixed_ref=1 / me_range=32 / chroma_me=1 / trellis=2 / 8x8dct=1 / cqm=0 / deadzone=21,11 / fast_pskip=1 / chroma_qp_offset=-2 / threads=12 / lookahead_threads=2 / sliced_threads=0 / nr=0 / decimate=1 / interlaced=0 / bluray_compat=0 / constrained_intra=0 / fgo=0 / bframes=7 / b_pyramid=2 / b_adapt=2 / b_bias=0 / direct=1 / weightb=1 / open_gop=0 / weightp=2 / keyint=250 / keyint_min=23 / scenecut=40 / intra_refresh=0 / rc_lookahead=60 / rc=crf / mbtree=0 / crf=17.0000 / qcomp=0.60 / qpmin=0 / qpmax=69 / qpstep=4 / vbv_maxrate=62500 / vbv_bufsize=78125 / crf_max=0.0 / nal_hrd=none / filler=0 / ip_ratio=1.40 / pb_ratio=1.30 / aq=1:1.00
Язык : English
Default : Да
Forced : Нет
Основные цвета : BT.709
Характеристики трансфера : BT.709
Коэффициенты матрицы : BT.709
colour_range : Limited
Аудио #1
Идентификатор : 2
Формат : AC-3
Формат/Информация : Audio Coding 3
Расширение режима : CM (complete main)
Параметр Endianness формата : Big
Идентификатор кодека : A_AC3
Продолжительность : 1 ч. 29 м.
Вид битрейта : Постоянный
Битрейт : 640 Кбит/сек
Каналы : 6 каналов
Расположение каналов : Front: L C R, Side: L R, LFE
Частота : 48,0 КГц
Битовая глубина : 16 бит
Метод сжатия : С потерями
Размер потока : 409 Мбайт (4%)
Заголовок : Dub, Blu-ray CEE
Язык : Russian
Default : Да
Forced : Нет
Аудио #2
Идентификатор : 3
Формат : DTS
Формат/Информация : Digital Theater Systems
Режим : 16
Параметр Endianness формата : Big
Идентификатор кодека : A_DTS
Продолжительность : 1 ч. 29 м.
Вид битрейта : Постоянный
Битрейт : 1509 Кбит/сек
Каналы : 6 каналов
Расположение каналов : Front: L C R, Side: L R, LFE
Частота : 48,0 КГц
Битовая глубина : 16 бит
Метод сжатия : С потерями
Размер потока : 963 Мбайт (9%)
Язык : English
Default : Нет
Forced : Нет
Текст #1
Идентификатор : 4
Формат : UTF-8
Идентификатор кодека : S_TEXT/UTF8
Идентификатор кодека/Информация : UTF-8 Plain Text
Язык : Ukrainian
Default : Нет
Forced : Нет
Текст #2
Идентификатор : 5
Формат : UTF-8
Идентификатор кодека : S_TEXT/UTF8
Идентификатор кодека/Информация : UTF-8 Plain Text
Язык : English
Default : Нет
Forced : Нет
Меню
00:00:00.000 : en:Chapter 1
00:05:33.791 : en:Chapter 2
00:14:11.100 : en:Chapter 3
00:22:32.184 : en:Chapter 4
00:26:35.885 : en:Chapter 5
00:29:59.839 : en:Chapter 6
00:36:04.912 : en:Chapter 7
00:38:44.155 : en:Chapter 8
00:42:19.495 : en:Chapter 9
00:48:09.261 : en:Chapter 10
00:53:03.138 : en:Chapter 11
00:56:10.617 : en:Chapter 12
00:59:03.456 : en:Chapter 13
01:05:05.067 : en:Chapter 14
01:11:31.036 : en:Chapter 15
01:19:44.196 : en:Chapter 16
-

_________________
Показать сообщения:    

Текущее время: Сегодня 14:34

Часовой пояс: GMT



Вы не можете начинать темы
Вы не можете отвечать на сообщения
Вы не можете редактировать свои сообщения
Вы не можете удалять свои сообщения
Вы не можете голосовать в опросах
Вы не можете прикреплять файлы к сообщениям
Вы не можете скачивать файлы