Важное объявление!
У Нас Все раздачи мультитрекерные, при нуле пиров в релизах, можете смело вставать на закачку!
 
Автор Сообщение

HUNTER

Стаж:
4 года 4 месяца
Сообщений:
56839

Репутация: 101

[+] [-]
Вне форума [Профиль] [ЛС]

Капсула / Capsule
Страна: Великобритания
Жанр: Драма, научная фантастика, исторический
Год выпуска: 2015
Продолжительность: 01:31:00
Перевод: Одноголосый закадровый BadBajo
Cубтитры: нет
Оригинальная аудиодорожка: английский
Режиссер: Эндрю Мартин
В ролях: Эдмунд Кингсли, Лиза Гринвуд, Найджел Барбер, Дэвид Уайман, Мики Кольтес
Описание: Давным-давно, в далекой-далекой галактике...
Пилот английской космической капсулы, из-за неполадок с двигателем, застрял в космосе и не может вернуться домой. Помощи ждать неоткуда. надеяться можно только на себя. Справится ли наш герой и увидит свою любимую?
Доп. информация: Имя главного героя упоминается 70 раз)))
Сэмпл: http://sendfile.su/1270491
Качество видео: WEB-DL
Формат видео: MKV
Видео: MPEG-4 AVC, 1912х804, 2.40:1, 24.000 fps, 4 524 Кбит/с
Аудио: AC3, 48.0 KHz, 6 ch, 384 kbps, 3/2 (L,C,R,l,r) + LFE ch, Original
Аудио 2: AC3, 48.0 KHz, 6 ch, 384 kbps, 3/2 (L,C,R,l,r) + LFE ch, Русский

MediaInfo

Complete name : D:\Downloads\61caps\Capsule.2015.1080p.WEB-DL.DD5.1.H264-FGT.rus.BadBajo.mkv
Format : Matroska
Format version : Version 4 / Version 2
File size : 3.44 GiB
Duration : 1 h 31 min
Overall bit rate : 5 392 kb/s
Movie name : Capsule.2015.1080p.WEB-DL.DD5.1.H264-FGT
Encoded date : UTC 2016-10-01 18:18:33
Writing application : mkvmerge v9.2.0 ('Photograph') 64bit
Writing library : libebml v1.3.3 + libmatroska v1.4.4
Cover : Yes
Attachments : cover_land.jpg / small_cover.jpg / small_cover_land.jpg / cover.jpg
Video
ID : 1
Format : AVC
Format/Info : Advanced Video Codec
Format profile : High@L4
Format settings, CABAC : Yes
Format settings, ReFrames : 5 frames
Codec ID : V_MPEG4/ISO/AVC
Duration : 1 h 31 min
Bit rate : 4 622 kb/s
Width : 1 912 pixels
Height : 804 pixels
Display aspect ratio : 2.40:1
Frame rate mode : Constant
Frame rate : 24.000 FPS
Color space : YUV
Chroma subsampling : 4:2:0
Bit depth : 8 bits
Scan type : Progressive
Bits/(Pixel*Frame) : 0.125
Stream size : 2.95 GiB (86%)
Title : Capsule.2015.1080p.WEB-DL.DD5.1.H264-FGT
Language : English
Default : Yes
Forced : No
Color range : Limited
Color primaries : BT.709
Transfer characteristics : BT.709
Matrix coefficients : BT.709
Audio #1
ID : 2
Format : AC-3
Format/Info : Audio Coding 3
Mode extension : CM (complete main)
Format settings, Endianness : Big
Codec ID : A_AC3
Duration : 1 h 31 min
Bit rate mode : Constant
Bit rate : 384 kb/s
Channel(s) : 6 channels
Channel positions : Front: L C R, Side: L R, LFE
Sampling rate : 48.0 kHz
Frame rate : 31.250 FPS (1536 spf)
Compression mode : Lossy
Stream size : 251 MiB (7%)
Title : Capsule.2015.eng
Language : English
Default : Yes
Forced : No
Audio #2
ID : 3
Format : AC-3
Format/Info : Audio Coding 3
Mode extension : CM (complete main)
Format settings, Endianness : Big
Codec ID : A_AC3
Duration : 1 h 31 min
Bit rate mode : Constant
Bit rate : 384 kb/s
Channel(s) : 6 channels
Channel positions : Front: L C R, Side: L R, LFE
Sampling rate : 48.0 kHz
Frame rate : 31.250 FPS (1536 spf)
Compression mode : Lossy
Stream size : 251 MiB (7%)
Title : Capsule.2015.rus.BadBajo
Language : Russian
Default : No
Forced : No
Menu
00:00:00.000 : en:Chapter 1
00:25:20.000 : en:Chapter 2
00:56:12.000 : en:Chapter 3
01:27:23.000 : en:Chapter 4

Скриншоты





_________________
Показать сообщения:    

Текущее время: Сегодня 08:25

Часовой пояс: GMT



Вы не можете начинать темы
Вы не можете отвечать на сообщения
Вы не можете редактировать свои сообщения
Вы не можете удалять свои сообщения
Вы не можете голосовать в опросах
Вы не можете прикреплять файлы к сообщениям
Вы не можете скачивать файлы