Важное объявление!
У Нас Все раздачи мультитрекерные, при нуле пиров в релизах, можете смело вставать на закачку!
 
Автор Сообщение

HUNTER

Стаж:
4 года 4 месяца
Сообщений:
56842

Репутация: 101

[+] [-]
Вне форума [Профиль] [ЛС]

Капитан Лайтфут / Captain Lightfoot-
Год выпуска: 1955
Страна: США
Жанр: мелодрама, приключения
Продолжительность: 01:31:45
Перевод: Субтитры
Оригинальная аудиодорожка: Английская
Cубтитры: Русские (Igor2138)-Режиссер: Дуглас Серк / Douglas Sirk
В ролях: Рок Хадсон, Барбара Раш, Джефф Морроу, Кэтлин Райан, Финлэй Карри, Денис О’Ди, Джеффри Тун, Хилтон Эдвардс, Шила Бреннан, Гарри Голдблатт.-Описание:
1815 год. Ирландия охвачена отчаянным сопротивлением против иностранного господства. Майкл Мартин является членом ирландского тайного общества, он разочаровывается в результатах его деятельности и переходит к активным действиям, нападая на английских лендлордов и их управляющих, отнимая у них деньги, полученные ими с арендаторов-ирландцев. Он вынужден бежать из поместья Баллимор в Дублин, где встречает легендарного лидера ирландских повстанцев капитана Тандерболта.- | IMDb | Сэмпл-Качество: BDRip 720p (USURY)
Контейнер: MKV
Видео: x264, 1280x544 (2.35:1), 23.976 fps, 4343 kbps
Аудио: Английский DTS 2.0, 48 kHz, 768 kbps, 16-bit
Формат субтитров: softsub (SRT)

Скриншоты


MI
General
Unique ID : 212653068741922860021004130973431315695 (0x9FFB7DC4E478DA838936D2AA32A73CEF)
Complete name : Captain.Lightfoot.1955.720p.BluRay.x264-USURY.mkv
Format : Matroska
Format version : Version 2
File size : 3.28 GiB
Duration : 1h 31mn
Overall bit rate : 5 114 Kbps
Movie name : Captain Lightfoot / Капитан Лайтфут (1955) – RuTracker
Encoded date : UTC 2015-02-04 20:44:00
Writing application : mkvmerge v7.5.0 ('Glass Culture') 64bit built on Jan 4 2015 16:48:44
Writing library : libebml v1.3.1 + libmatroska v1.4.2
Attachements : cover.jpg
Video
ID : 1
Format : AVC
Format/Info : Advanced Video Codec
Format profile : High@L4.1
Format settings, CABAC : Yes
Format settings, ReFrames : 5 frames
Codec ID : V_MPEG4/ISO/AVC
Duration : 1h 31mn
Bit rate : 4 343 Kbps
Width : 1 280 pixels
Height : 544 pixels
Display aspect ratio : 2.35:1
Frame rate mode : Constant
Frame rate : 23.976 fps
Color space : YUV
Chroma subsampling : 4:2:0
Bit depth : 8 bits
Scan type : Progressive
Bits/(Pixel*Frame) : 0.260
Stream size : 2.72 GiB (83%)
Title : captain.lightfoot.1955.720p.bluray.x264-usury
Writing library : x264 core 142 r2491 24e4fed
Encoding settings : cabac=1 / ref=5 / deblock=1:-2:-2 / analyse=0x3:0x113 / me=umh / subme=8 / psy=1 / psy_rd=1.00:0.25 / mixed_ref=1 / me_range=16 / chroma_me=1 / trellis=1 / 8x8dct=1 / cqm=0 / deadzone=6,6 / fast_pskip=0 / chroma_qp_offset=-4 / threads=6 / lookahead_threads=1 / sliced_threads=0 / nr=0 / decimate=0 / interlaced=0 / bluray_compat=0 / constrained_intra=0 / bframes=3 / b_pyramid=2 / b_adapt=2 / b_bias=0 / direct=3 / weightb=1 / open_gop=0 / weightp=2 / keyint=250 / keyint_min=23 / scenecut=40 / intra_refresh=0 / rc_lookahead=50 / rc=2pass / mbtree=1 / bitrate=4343 / ratetol=1.0 / qcomp=0.80 / qpmin=0 / qpmax=69 / qpstep=4 / cplxblur=20.0 / qblur=0.5 / ip_ratio=1.10 / aq=1:0.50
Language : English
Default : Yes
Forced : No
Audio
ID : 2
Format : DTS
Format/Info : Digital Theater Systems
Mode : 16
Format settings, Endianness : Big
Codec ID : A_DTS
Duration : 1h 31mn
Bit rate mode : Constant
Bit rate : 768 Kbps
Channel(s) : 2 channels
Channel positions : Front: L R
Sampling rate : 48.0 KHz
Bit depth : 16 bits
Compression mode : Lossy
Stream size : 504 MiB (15%)
Language : English
Default : Yes
Forced : No
Text
ID : 3
Format : UTF-8
Codec ID : S_TEXT/UTF8
Codec ID/Info : UTF-8 Plain Text
Language : Russian
Default : Yes
Forced : No
Menu
00:00:00.000 : en:Chapter 01
00:08:16.662 : en:Chapter 02
00:14:39.420 : en:Chapter 03
00:21:41.383 : en:Chapter 04
00:29:40.528 : en:Chapter 05
00:37:16.067 : en:Chapter 06
00:45:20.884 : en:Chapter 07
00:52:04.204 : en:Chapter 08
00:58:56.157 : en:Chapter 09
01:06:45.918 : en:Chapter 10
01:15:27.189 : en:Chapter 11
01:21:17.163 : en:Chapter 12

_________________
Показать сообщения:    

Текущее время: Сегодня 17:53

Часовой пояс: GMT



Вы не можете начинать темы
Вы не можете отвечать на сообщения
Вы не можете редактировать свои сообщения
Вы не можете удалять свои сообщения
Вы не можете голосовать в опросах
Вы не можете прикреплять файлы к сообщениям
Вы не можете скачивать файлы
Наши партнеры: интернет магазин Ивановского трикотажа textilla.ru