Важное объявление!
У Нас Все раздачи мультитрекерные, при нуле пиров в релизах, можете смело вставать на закачку!
 
Автор Сообщение

HUNTER

Стаж:
4 года 4 месяца
Сообщений:
56719

Репутация: 101

[+] [-]
Вне форума [Профиль] [ЛС]

Капитан Зум: Академия супергероев / Zoom
Страна: США
Студия: Revolution Studios, Boxing Cat Films и др.
Жанр: фантастика, боевик, приключения, семейный
Год выпуска: 2006
Продолжительность: 01:28:21
Перевод: Профессиональный (двухголосый закадровый) #1
Перевод 2: Профессиональный (двухголосый закадровый) #2
Cубтитры: английские
Оригинальная аудиодорожка: английский
Режиссер: Питер Хьюит / Peter Hewitt
В ролях: Тим Аллен, Кортни Кокс, Чеви Чейз, Спенсер Бреслин, Кевин Зегерс, Кейт Мара, Майкл Кэссиди, Райан Ньюман, Рип Торн, Корнелия Гест
Описание: Страшно, когда тебя не любят и у тебя совсем нет друзей. У тебя не остается ничего, кроме обид и зависти. Но однажды твой папа, которого нет рядом, но он все-таки есть, забирает тебя из обыкновенной школы в суперменскую! Вот где обнаружатся все твои таланты, нужно только верить в себя…

Sample
Тип релиза: WEB-DL 720p
Контейнер: MKV
Видео: MPEG4 AVC Video, H264, 1280x720, 23.976 fps, 3882 kbps
Аудио: Russian (AC3, 6 ch, 448 kbps, 16 bits, 48.0 KHz) - DVO #1
Аудио 2: Russian (AC3, 2 ch, 192 kbps, 16 bits, 48.0 KHz) - DVO #1
Аудио 3: English (AC3, 6 ch, 384 kbps, 16 bits, 48.0 KHz) - оригинал
Формат субтитров: softsub (SRT)

MediaInfo

General
Unique ID : 199677156499992608001912873345894845121 (0x96386BE6DB4EA83584AC0B462E600AC1)
Complete name : E:\Zoom 2006 WEB-DL 720p.mkv
Format : Matroska
Format version : Version 4 / Version 2
File size : 3.09 GiB
Duration : 1h 28mn
Overall bit rate : 5 005 Kbps
Encoded date : UTC 2015-12-20 18:15:35
Writing application : mkvmerge v6.1.0 ('Old Devil') built on Mar 2 2013 14:32:37
Writing library : libebml v1.3.0 + libmatroska v1.4.0
Video
ID : 1
Format : AVC
Format/Info : Advanced Video Codec
Format profile : High@L3.1
Format settings, CABAC : No
Format settings, ReFrames : 2 frames
Codec ID : V_MPEG4/ISO/AVC
Duration : 1h 28mn
Bit rate : 3 882 Kbps
Width : 1 280 pixels
Height : 720 pixels
Display aspect ratio : 16:9
Frame rate mode : Constant
Frame rate : 23.976 fps
Color space : YUV
Chroma subsampling : 4:2:0
Bit depth : 8 bits
Scan type : Progressive
Bits/(Pixel*Frame) : 0.176
Stream size : 2.40 GiB (78%)
Language : English
Default : Yes
Forced : No
Color primaries : BT.709
Transfer characteristics : BT.709
Matrix coefficients : BT.709
Audio #1
ID : 2
Format : AC-3
Format/Info : Audio Coding 3
Mode extension : CM (complete main)
Format settings, Endianness : Big
Codec ID : A_AC3
Duration : 1h 28mn
Bit rate mode : Constant
Bit rate : 448 Kbps
Channel count : 6 channels
Channel positions : Front: L C R, Side: L R, LFE
Sampling rate : 48.0 KHz
Bit depth : 16 bits
Compression mode : Lossy
Stream size : 283 MiB (9%)
Title : DVO 1
Language : Russian
Default : Yes
Forced : No
Audio #2
ID : 3
Format : AC-3
Format/Info : Audio Coding 3
Mode extension : CM (complete main)
Format settings, Endianness : Big
Codec ID : A_AC3
Duration : 1h 28mn
Bit rate mode : Constant
Bit rate : 192 Kbps
Channel count : 2 channels
Channel positions : Front: L R
Sampling rate : 48.0 KHz
Bit depth : 16 bits
Compression mode : Lossy
Stream size : 121 MiB (4%)
Title : DVO 2
Language : Russian
Default : No
Forced : No
Audio #3
ID : 4
Format : AC-3
Format/Info : Audio Coding 3
Mode extension : CM (complete main)
Format settings, Endianness : Big
Codec ID : A_AC3
Duration : 1h 28mn
Bit rate mode : Constant
Bit rate : 384 Kbps
Channel count : 6 channels
Channel positions : Front: L C R, Side: L R, LFE
Sampling rate : 48.0 KHz
Bit depth : 16 bits
Compression mode : Lossy
Stream size : 243 MiB (8%)
Language : English
Default : No
Forced : No
Text
ID : 5
Format : UTF-8
Codec ID : S_TEXT/UTF8
Codec ID/Info : UTF-8 Plain Text
Language : English
Default : No
Forced : No
Menu
00:00:00.000 : en:The Concussion Problem
00:03:20.000 : en:Zoom
00:05:28.000 : en:The New Kids
00:08:45.000 : en:Testing
00:13:58.000 : en:Zoom Has Issues
00:18:06.000 : en:The Real Zoom
00:20:33.000 : en:Training Begins
00:22:40.000 : en:Holloway's Disappointment
00:26:45.000 : en:Joyride
00:33:29.000 : en:"Am I Different?"
00:36:38.000 : en:Hardcore Training
00:40:23.000 : en:You Don't Care
00:41:41.000 : en:Locked Up
00:43:28.000 : en:Simulator
00:46:25.000 : en:A Leader
00:48:04.000 : en:A Revelation
00:49:54.000 : en:Control And Execution
00:53:08.000 : en:Becoming A Team
00:54:09.000 : en:A Plan
00:55:09.000 : en:Prom Queens
00:59:47.000 : en:"Now We're A Family"
01:02:49.000 : en:The Truth Revealed
01:05:48.000 : en:Escape!
01:09:55.000 : en:A Brother's Return
01:12:57.000 : en:Return Of Powers
01:16:44.000 : en:"Let's Play Ball"
01:18:30.000 : en:"Got My Brother Back"
01:20:02.000 : en:New Beginning

Скриншоты


_________________
Показать сообщения:    

Текущее время: Сегодня 04:49

Часовой пояс: GMT



Вы не можете начинать темы
Вы не можете отвечать на сообщения
Вы не можете редактировать свои сообщения
Вы не можете удалять свои сообщения
Вы не можете голосовать в опросах
Вы не можете прикреплять файлы к сообщениям
Вы не можете скачивать файлы