Важное объявление!
У Нас Все раздачи мультитрекерные, при нуле пиров в релизах, можете смело вставать на закачку!
 
Автор Сообщение

HUNTER

Стаж:
4 года 4 месяца
Сообщений:
56853

Репутация: 101

[+] [-]
Вне форума [Профиль] [ЛС]

Каникулы / Vacation
Страна: США
Студия: Davis Entertainment, RatPac-Dune Entertainment, Warner Bros
Жанр: комедия, приключения
Год выпуска: 2015
Продолжительность: 01:39:02
Перевод: Профессиональный (дублированный)
Cубтитры: Rus, Eng
Оригинальная аудиодорожка: английский
Режиссер: Джон Фрэнсис Дейли, Джонатан М. Голдштейн / John Francis Daley, Jonathan M. Goldstein
В ролях: Эд Хелмс, Кристина Эпплгейт, Скайлер Джизондо, Стил Стеббинс, Крис Хемсворт, Лесли Манн, Чеви Чейз, Беверли Д’Анджело, Чарли Дэй, Катрин Миссал
Описание: Расти Гризвольд — молодой отец и примерный семьянин, который очень хочет сплотить семью и воссоздать каникулы из своего детства. Вместе с супругой и двумя сыновьями он решает совершить незабываемое путешествие через всю страну, конечной целью которого станет самый лучший тематический парк Америки. Все тщательно спланировав, они отправляются в дорогу, надеясь, что их ждет очень веселое и увлекательное путешествие.
В начале пути все происходит как нельзя лучше, но чем дальше они отдаляются от дома, тем больше проблем их ждет впереди. Все пошло совсем не так, как планировал Расти, но он не собирается останавливаться и готов сделать все возможное для того, чтобы добраться до пункта назначения и подарить своей семье лучшие каникулы…

Тип релиза: BDRip 1080p
Контейнер: MKV
Видео: MPEG-4 AVC, 16.9 Mбит/с, 1920x800, 23,976 fps
Аудио: Rus, AC3, 640 kb/s (6 ch), 48 kHz
Аудио 2: Eng, DTS, 1510 kb/s (6 ch), 48 kHz
Формат субтитров: softsub (SRT)

MediaInfo

x264 [info]: frame I:1280 Avg QP:15.35 size:320434
x264 [info]: frame P:29608 Avg QP:16.61 size:158447
x264 [info]: frame B:111581 Avg QP:18.45 size: 69330
x264 [info]: consecutive B-frames: 1.6% 2.0% 5.9% 24.6% 16.1% 32.6% 8.7% 7.2% 1.3%
Format : Matroska
Format version : Version 4 / Version 2
File size : 13.4 GiB
Duration : 1h 39mn
Overall bit rate : 19.4 Mbps
Movie name : Каникулы. (Tonik)
Encoded date : UTC 2015-12-04 06:51:10
Writing application : mkvmerge v7.1.0 ('Good Love') 64bit built on Jul 27 2014 13:06:55
Writing library : libebml v1.3.0 + libmatroska v1.4.1
_STATISTICS_WRITING_APP : mkvmerge v7.1.0 ('Good Love') 64bit built on Jul 27 2014 13:06:55
_STATISTICS_WRITING_DATE_UTC : 2015-12-04 06:51:10
_STATISTICS_TAGS : BPS DURATION NUMBER_OF_FRAMES NUMBER_OF_BYTES
DURATION : 01:39:02.155000000
NUMBER_OF_FRAMES : 557077
NUMBER_OF_BYTES : 1120838924
Video
ID : 1
Format : AVC
Format/Info : Advanced Video Codec
Format profile : High@L4.1
Format settings, CABAC : Yes
Format settings, ReFrames : 5 frames
Codec ID : V_MPEG4/ISO/AVC
Duration : 1h 39mn
Bit rate : 16.9 Mbps
Width : 1 920 pixels
Height : 800 pixels
Display aspect ratio : 2.40:1
Frame rate mode : Constant
Frame rate : 23.976 fps
Color space : YUV
Chroma subsampling : 4:2:0
Bit depth : 8 bits
Scan type : Progressive
Bits/(Pixel*Frame) : 0.459
Stream size : 11.7 GiB (87%)
Writing library : x264 core 142 r2431+42 c69a006 tMod [8-bit@all X86_64]
Encoding settings : cabac=1 / ref=5 / deblock=1:-3:-3 / analyse=0x3:0x113 / me=tesa / subme=11 / psy=1 / fade_compensate=0.00 / psy_rd=1.05:0.00 / mixed_ref=1 / me_range=32 / chroma_me=1 / trellis=2 / 8x8dct=1 / cqm=0 / deadzone=21,11 / fast_pskip=0 / chroma_qp_offset=-2 / threads=12 / lookahead_threads=2 / sliced_threads=0 / nr=0 / decimate=0 / interlaced=0 / bluray_compat=0 / constrained_intra=0 / fgo=0 / bframes=8 / b_pyramid=2 / b_adapt=2 / b_bias=0 / direct=3 / weightb=1 / open_gop=0 / weightp=2 / keyint=250 / keyint_min=23 / scenecut=40 / intra_refresh=0 / rc_lookahead=140 / rc=crf / mbtree=0 / crf=16.0000 / qcomp=0.60 / qpmin=0:0:0 / qpmax=69:69:69 / qpstep=4 / vbv_maxrate=40000 / vbv_bufsize=30000 / crf_max=0.0 / nal_hrd=none / filler=0 / ip_ratio=1.40 / pb_ratio=1.30 / aq=4:0.85 / aq-sensitivity=10.00 / aq-factor=1.00:1.00:1.00 / aq2=0 / aq3=0
Language : English
Default : Yes
Forced : No
DURATION : 01:39:02.145000000
NUMBER_OF_FRAMES : 142469
NUMBER_OF_BYTES : 12837348424
_STATISTICS_WRITING_APP : mkvmerge v7.1.0 ('Good Love') 64bit built on Jul 27 2014 13:06:55
_STATISTICS_WRITING_DATE_UTC : 2015-12-04 06:51:10
_STATISTICS_TAGS : BPS DURATION NUMBER_OF_FRAMES NUMBER_OF_BYTES
Audio #1
ID : 2
Format : AC-3
Format/Info : Audio Coding 3
Mode extension : CM (complete main)
Format settings, Endianness : Big
Codec ID : A_AC3
Duration : 1h 39mn
Bit rate mode : Constant
Bit rate : 640 Kbps
Channel(s) : 6 channels
Channel positions : Front: L C R, Side: L R, LFE
Sampling rate : 48.0 KHz
Bit depth : 16 bits
Compression mode : Lossy
Stream size : 453 MiB (3%)
Language : Russian
Default : Yes
Forced : No
Audio #2
ID : 3
Format : DTS
Format/Info : Digital Theater Systems
Mode : 16
Format settings, Endianness : Big
Codec ID : A_DTS
Duration : 1h 39mn
Bit rate mode : Constant
Bit rate : 1 509 Kbps
Channel(s) : 6 channels
Channel positions : Front: L C R, Side: L R, LFE
Sampling rate : 48.0 KHz
Bit depth : 24 bits
Compression mode : Lossy
Stream size : 1.04 GiB (8%)
Language : English
Default : No
Forced : No
Text #1
ID : 4
Format : UTF-8
Codec ID : S_TEXT/UTF8
Codec ID/Info : UTF-8 Plain Text
Title : Forced
Language : Russian
Default : Yes
Forced : No
Text #2
ID : 5
Format : UTF-8
Codec ID : S_TEXT/UTF8
Codec ID/Info : UTF-8 Plain Text
Title : Full
Language : Russian
Default : No
Forced : No
Text #3
ID : 6
Format : UTF-8
Codec ID : S_TEXT/UTF8
Codec ID/Info : UTF-8 Plain Text
Language : English
Default : No
Forced : No
Text #4
ID : 7
Format : UTF-8
Codec ID : S_TEXT/UTF8
Codec ID/Info : UTF-8 Plain Text
Title : SDH
Language : English
Default : No
Forced : No
Menu
00:00:00.000 : en:00:00:00.000
00:11:56.674 : en:00:11:56.674
00:20:55.379 : en:00:20:55.379
00:29:27.140 : en:00:29:27.140
00:40:54.619 : en:00:40:54.619
00:47:55.664 : en:00:47:55.664
01:00:23.286 : en:01:00:23.286
01:09:41.803 : en:01:09:41.803
01:20:52.473 : en:01:20:52.473
01:28:00.442 : en:01:28:00.442
01:34:51.936 : en:01:34:51.936

Скриншоты


_________________
Показать сообщения:    

Текущее время: Сегодня 10:38

Часовой пояс: GMT



Вы не можете начинать темы
Вы не можете отвечать на сообщения
Вы не можете редактировать свои сообщения
Вы не можете удалять свои сообщения
Вы не можете голосовать в опросах
Вы не можете прикреплять файлы к сообщениям
Вы не можете скачивать файлы
Наши партнеры: интернет магазин Ивановского трикотажа textilla.ru