Важное объявление!
У Нас Все раздачи мультитрекерные, при нуле пиров в релизах, можете смело вставать на закачку!
 
Автор Сообщение

HUNTER

Стаж:
4 года 4 месяца
Сообщений:
56722

Репутация: 101

[+] [-]
Вне форума [Профиль] [ЛС]

Кандидат / The Candidate
-Страна: США
Жанр: комедия
Год выпуска: 1972
Продолжительность: 01:50:12-Перевод : Профессиональский (многоголосый закадровый)
Cубтитры: английские
Оригинальная аудиодорожка: английский-Режиссер: Майкл Ритчи / Michael Ritchie-В ролях: Роберт Редфорд, Мелвин Даглас, Питер Бойл, Кэрен Карлсон, Аллен Гарфилд-Описание:
Билл МакКей-- честный адвокат и просто хороший человек. Его убеждают выдвинуть свою кандидатуру на пост сенатора, и он соглашается, не подозревая, насколько политика грязное дело.-Сэмпл: Скачать-Тип релиза: WEB-DL 720p
Контейнер: MKV-Видео: 1 274x718 (16:9); 3 928 Kbps; 23.976 fps; 0.189 bpp
Аудио 1: Russian; AC3; 48.0 KHz; 2ch; 192 Kbps MVO 1
Аудио 1: Russian; AC3; 48.0 KHz; 2ch; 192 Kbps MVO 2
Аудио 2: English; AAC; 48.0 KHz; 2ch; 160 Kbps

MediaInfo

Format : Matroska
Format version : Version 4 / Version 2
File size : 3.51 GiB
Duration : 1h 50mn
Overall bit rate : 4 558 Kbps
Encoded date : UTC 2015-08-24 14:35:24
Writing application : mkvmerge v8.1.0 ('Psychedelic Postcard') 64bit
Writing library : libebml v1.3.1 + libmatroska v1.4.2
Attachements : poster.jpg
DURATION : 01:50:10.400000000
NUMBER_OF_FRAMES : 206575
NUMBER_OF_BYTES : 158649600
_STATISTICS_WRITING_APP : mkvmerge v8.1.0 ('Psychedelic Postcard') 64bit
_STATISTICS_WRITING_DATE_UTC : 2015-08-24 14:35:24
_STATISTICS_TAGS : BPS DURATION NUMBER_OF_FRAMES NUMBER_OF_BYTES
Video
ID : 1
Format : AVC
Format/Info : Advanced Video Codec
Format profile : High@L3.1
Format settings, CABAC : No
Format settings, ReFrames : 2 frames
Format settings, GOP : N=1
Codec ID : V_MPEG4/ISO/AVC
Duration : 1h 50mn
Width : 1 274 pixels
Height : 720 pixels
Display aspect ratio : 16:9
Frame rate mode : Constant
Frame rate : 23.976 fps
Color space : YUV
Chroma subsampling : 4:2:0
Bit depth : 8 bits
Scan type : Progressive
Language : English
Default : Yes
Forced : No
Color primaries : BT.709
Transfer characteristics : BT.709
Matrix coefficients : BT.709
Audio #1
ID : 2
Format : AC-3
Format/Info : Audio Coding 3
Mode extension : CM (complete main)
Format settings, Endianness : Big
Codec ID : A_AC3
Duration : 1h 50mn
Bit rate mode : Constant
Bit rate : 192 Kbps
Channel(s) : 2 channels
Channel positions : Front: L R
Sampling rate : 48.0 KHz
Bit depth : 16 bits
Compression mode : Lossy
Stream size : 151 MiB (4%)
Title : MVO 1
Language : Russian
Default : Yes
Forced : No
Audio #2
ID : 3
Format : AC-3
Format/Info : Audio Coding 3
Mode extension : CM (complete main)
Format settings, Endianness : Big
Codec ID : A_AC3
Duration : 1h 50mn
Bit rate mode : Constant
Bit rate : 192 Kbps
Channel(s) : 2 channels
Channel positions : Front: L R
Sampling rate : 48.0 KHz
Bit depth : 16 bits
Compression mode : Lossy
Stream size : 151 MiB (4%)
Title : MVO 2
Language : Russian
Default : No
Forced : No
Audio #3
ID : 4
Format : AAC
Format/Info : Advanced Audio Codec
Format profile : LC
Codec ID : A_AAC
Duration : 1h 50mn
Channel(s) : 2 channels
Channel positions : Front: L R
Sampling rate : 48.0 KHz
Compression mode : Lossy
Language : English
Default : No
Forced : No
Text
ID : 5
Format : UTF-8
Codec ID : S_TEXT/UTF8
Codec ID/Info : UTF-8 Plain Text
Language : English
Default : No
Forced : No
Menu
00:00:00.000 : en:Chapter 1
00:03:53.000 : en:Chapter 2
00:05:45.000 : en:Chapter 3
00:08:32.000 : en:Chapter 4
00:12:06.000 : en:Chapter 5
00:14:46.000 : en:Chapter 6
00:20:30.000 : en:Chapter 7
00:27:14.000 : en:Chapter 8
00:29:48.000 : en:Chapter 9
00:32:04.000 : en:Chapter 10
00:34:02.000 : en:Chapter 11
00:37:00.000 : en:Chapter 12
00:39:04.000 : en:Chapter 13
00:41:54.000 : en:Chapter 14
00:47:27.000 : en:Chapter 15
00:52:10.000 : en:Chapter 16
00:55:28.000 : en:Chapter 17
00:59:59.000 : en:Chapter 18
01:01:55.000 : en:Chapter 19
01:04:45.000 : en:Chapter 20
01:07:08.000 : en:Chapter 21
01:13:26.000 : en:Chapter 22
01:16:15.000 : en:Chapter 23
01:21:08.000 : en:Chapter 24
01:23:42.000 : en:Chapter 25
01:28:52.000 : en:Chapter 26
01:32:14.000 : en:Chapter 27
01:35:03.000 : en:Chapter 28
01:40:18.000 : en:Chapter 29
01:44:22.000 : en:Chapter 30
01:46:30.000 : en:Chapter 31
01:48:48.000 : en:Chapter 32

Скриншоты


_________________
Показать сообщения:    

Текущее время: Сегодня 16:05

Часовой пояс: GMT



Вы не можете начинать темы
Вы не можете отвечать на сообщения
Вы не можете редактировать свои сообщения
Вы не можете удалять свои сообщения
Вы не можете голосовать в опросах
Вы не можете прикреплять файлы к сообщениям
Вы не можете скачивать файлы