Важное объявление!
У Нас Все раздачи мультитрекерные, при нуле пиров в релизах, можете смело вставать на закачку!
 
Автор Сообщение

HUNTER

Стаж:
4 года 4 месяца
Сообщений:
56853

Репутация: 101

[+] [-]
Вне форума [Профиль] [ЛС]

-Каменный убийца / Изгой / Хладнокровный убийцаThe Stone Killer-
-Страна: США
Жанр: Боевик, триллер
Год выпуска: 1973
Продолжительность: 01:35:08-Перевод:-1. Профессиональный (многоголосый, закадровый - Кипарис)
2. Авторский (одноголосый закадровый) Ю. Сербин
3. Авторский (одноголосый закадровый) В. Горчаков-Cубтитры: английские
Оригинальная аудиодорожка: английская-Режиссер: Майкл Виннер / Michael Winner-В ролях: Чарльз Бронсон, Мартин Балсам, Джек Колвин, Пол Косло, Норман Фелл, Дэвид Шейнер, Стюарт Марголин, Ральф Вейт, Альфред Райкер, Уолтер Бурк-Описание: Один из «программных» фильмов с участием Чарльза Бронсона, где он, вслед за Клинтом Иствудом, но менее успешно пытался «переселить» жестокого героя вестерна, который не выпускает кольта из рук, в современную среду полицейских и мафиози. Лейтенант Лу Торри из нью-йоркской полиции стремится раскрыть заговор Дона Альберто Вескари, короля подпольного мира, который мстит другому гангстерскому клану за резню, совершённую ещё в 1931 году. Конечно, Лу — не «Грязный Гарри», хотя тоже крут и хладнокровен в скорой расправе над преступниками при помощи оружия, лучшего аргумента в защите закона в его своеобразном понимании.
Но всё-таки собственную «золотую жилу» Чарльз Бронсон и английский режиссёр Майкл Виннер, без труда вписавшийся в американский кинематограф, обнаружили в следующей, четвёртой по счёту, совместной картине «Жажда смерти», которая окончательно оправдывала идею «узаконенного насилия».-Пример: https://yadi.sk/i/dW_YOqwoabzE9-Качество видео: Web-DL 720p
Формат видео: MKV-Видео: 960х720 (4:3), MPEG-4 AVC, ~ 23.976 fps, 4 050 Kbps, 0.244 Bits/Pixel
Аудио #1: 48 kHz, AC3 Dolby Digital, 2/0 (L,R), ~192.00 kbps avg (Многоголосый закадровый - Кипарис)
Аудио #2: 48 kHz, AC3 Dolby Digital, 2/0 (L,R), ~192.00 kbps avg (Одноголосый закадровый - Ю. Сербин)
Аудио #3: 48 kHz, AC3 Dolby Digital, 2/0 (L,R), ~192.00 kbps avg (Одноголосый закадровый - В. Горчаков)
Аудио #4: 48 kHz, AAC 2/0 (L,R), ~160.00 kbps avg (Original)
Субтитры: Английские (UTF-8)-

MediaInfo

General
Unique ID : 207734820027635182815537035712295125784 (0x9C484562C44C3B60AB41AE8C8F28C318)
Format : Matroska
Format version : Version 4 / Version 2
File size : 3.16 GiB
Duration : 1h 35mn
Overall bit rate : 4 752 Kbps
Encoded date : UTC 2014-08-28 16:07:29
Writing application : mkvmerge v7.1.0 ('Good Love') 32bit built on Jul 27 2014 12:59:18
Writing library : libebml v1.3.0 + libmatroska v1.4.1
DURATION : 01:35:08.352000000
NUMBER_OF_FRAMES : 178386
NUMBER_OF_BYTES : 137000448
_STATISTICS_WRITING_APP : mkvmerge v7.1.0 ('Good Love') 32bit built on Jul 27 2014 12:59:18
_STATISTICS_WRITING_DATE_UTC : 2014-08-28 16:07:29
_STATISTICS_TAGS : BPS DURATION NUMBER_OF_FRAMES NUMBER_OF_BYTES
Video
ID : 1
Format : AVC
Format/Info : Advanced Video Codec
Format profile : Main@L3.1
Format settings, CABAC : No
Format settings, ReFrames : 2 frames
Codec ID : V_MPEG4/ISO/AVC
Duration : 1h 35mn
Width : 960 pixels
Height : 720 pixels
Display aspect ratio : 4:3
Frame rate mode : Constant
Frame rate : 23.976 fps
Color space : YUV
Chroma subsampling : 4:2:0
Bit depth : 8 bits
Scan type : Progressive
Language : English
Default : Yes
Forced : No
Color primaries : BT.709
Transfer characteristics : BT.709
Matrix coefficients : BT.709
Audio #1
ID : 2
Format : AC-3
Format/Info : Audio Coding 3
Mode extension : CM (complete main)
Format settings, Endianness : Big
Codec ID : A_AC3
Duration : 1h 35mn
Bit rate mode : Constant
Bit rate : 192 Kbps
Channel(s) : 2 channels
Channel positions : Front: L R
Sampling rate : 48.0 KHz
Bit depth : 16 bits
Compression mode : Lossy
Stream size : 131 MiB (4%)
Title : Многоголосый закадровый - Кипарис
Language : Russian
Default : Yes
Forced : No
Audio #2
ID : 3
Format : AC-3
Format/Info : Audio Coding 3
Mode extension : CM (complete main)
Format settings, Endianness : Big
Codec ID : A_AC3
Duration : 1h 35mn
Bit rate mode : Constant
Bit rate : 192 Kbps
Channel(s) : 2 channels
Channel positions : Front: L R
Sampling rate : 48.0 KHz
Bit depth : 16 bits
Compression mode : Lossy
Stream size : 131 MiB (4%)
Title : Одноголосый закадровый - Ю. Сербин
Language : Russian
Default : No
Forced : No
Audio #3
ID : 4
Format : AC-3
Format/Info : Audio Coding 3
Mode extension : CM (complete main)
Format settings, Endianness : Big
Codec ID : A_AC3
Duration : 1h 35mn
Bit rate mode : Constant
Bit rate : 192 Kbps
Channel(s) : 2 channels
Channel positions : Front: L R
Sampling rate : 48.0 KHz
Bit depth : 16 bits
Compression mode : Lossy
Stream size : 131 MiB (4%)
Title : Одноголосый закадровый - В. Горчаков
Language : Russian
Default : No
Forced : No
Audio #4
ID : 5
Format : AAC
Format/Info : Advanced Audio Codec
Format profile : HE-AAC / LC
Codec ID : A_AAC
Duration : 1h 35mn
Channel(s) : 2 channels
Channel positions : Front: L R
Sampling rate : 96.0 KHz / 48.0 KHz
Compression mode : Lossy
Title : Original
Language : English
Default : No
Forced : No
Text
ID : 6
Format : UTF-8
Codec ID : S_TEXT/UTF8
Codec ID/Info : UTF-8 Plain Text
Title : СС
Language : English
Default : No
Forced : No
Menu
00:00:00.000 : en:Chapter 1
00:07:32.000 : en:Chapter 2
00:15:03.000 : en:Chapter 3
00:22:02.000 : en:Chapter 4
00:29:20.000 : en:Chapter 5
00:36:54.000 : en:Chapter 6
00:44:27.000 : en:Chapter 7
00:51:35.000 : en:Chapter 8
00:59:40.000 : en:Chapter 9
01:08:04.000 : en:Chapter 10
01:16:19.000 : en:Chapter 11
01:25:09.000 : en:Chapter 12

Скриншот с названием фильма

Скриншоты


_________________
Показать сообщения:    

Текущее время: Сегодня 15:01

Часовой пояс: GMT



Вы не можете начинать темы
Вы не можете отвечать на сообщения
Вы не можете редактировать свои сообщения
Вы не можете удалять свои сообщения
Вы не можете голосовать в опросах
Вы не можете прикреплять файлы к сообщениям
Вы не можете скачивать файлы
Наши партнеры: интернет магазин Ивановского трикотажа textilla.ru