Важное объявление!
У Нас Все раздачи мультитрекерные, при нуле пиров в релизах, можете смело вставать на закачку!
 
Автор Сообщение

HUNTER

Стаж:
4 года 4 месяца
Сообщений:
56842

Репутация: 101

[+] [-]
Вне форума [Профиль] [ЛС]

Калланетика-

Год выпуска: 2006
Страна: Россия
Жанр: фитнесс
Продолжительность: 1:07:15
Автор: Инга Дубоделова.
Перевод: Любительский (одноголосый)-Описание: Калланетик - это уникальная система упражнений, вызывающих активность глубоко расположенных мышечных групп. Калланетик, словно талантливый скульптор, поможет вам вылепить новую фигуру безупречными формами. Исправится осанка, подтянется живот, улучшится форма ягодиц. Это комплекс особой гимнастики, который при регулярном выполнении и в сочетании с рациональным питанием эффективно корректирует.
Данное видео также представлено на трекере в формате DVD5 по адресу
-Качество: DVDRip
Формат: AVI
Видео кодек: H.264
Аудио кодек: MP3 Lame
Видео: 720x576 (1.25:1), 25 fps, 598 kbps avg, 0.06 bit/pixel
Аудио: 48 kHz, 2 ch, 128.00 kbps avg-

MediaInfo

Общее
Полное имя : F:\Мои роздачи\Новая папка\обучающее\Калланетика.avi
Формат : AVI
Формат/Информация : Audio Video Interleave
Размер файла : 294 Мбайт
Продолжительность : 1 ч. 7 м.
Общий поток : 612 Кбит/сек
Видео
Идентификатор : 0
Формат : AVC
Формат/Информация : Advanced Video Codec
Профиль формата : [url=mailto:High@L3.0]High@L3.0[/url]
Параметр CABAC формата : Да
Параметр ReFrames формата : 2 кадра
Идентификатор кодека : H264
Продолжительность : 1 ч. 7 м.
Битрейт : 471 Кбит/сек
Ширина : 720 пикселей
Высота : 576 пикселей
Соотношение сторон : 5:4
Частота кадров : 25,000 кадров/сек
Стандарт вещания : PAL
Цветовое пространство : YUV
Субдискретизация насыщенности : 4:2:0
Битовая глубина : 8 бит
Тип развёртки : Прогрессивная
Бит/(Пиксели*Кадры) : 0.045
Размер потока : 226 Мбайт (77%)
Библиотека кодирования : x264 core 66 r1101M b69548a
Настройки программы : cabac=1 / ref=1 / deblock=1:0:0 / analyse=0x3:0x113 / me=hex / subme=6 / psy_rd=1.0:0.0 / mixed_ref=0 / me_range=16 / chroma_me=1 / trellis=0 / 8x8dct=1 / cqm=0 / deadzone=21,11 / chroma_qp_offset=-2 / threads=3 / nr=0 / decimate=1 / mbaff=0 / bframes=2 / b_pyramid=0 / b_adapt=1 / b_bias=0 / direct=1 / wpredb=1 / keyint=250 / keyint_min=25 / scenecut=40(pre) / rc=crf / crf=26.0 / qcomp=0.60 / qpmin=10 / qpmax=51 / qpstep=4 / ip_ratio=1.40 / pb_ratio=1.30 / aq=1:1.00
Аудио
Идентификатор : 1
Формат : MPEG Audio
Версия формата : Version 1
Профиль формата : Layer 3
Идентификатор кодека : 55
Идентификатор кодека/Подсказка : MP3
Продолжительность : 1 ч. 7 м.
Продолжительность оригинала : 1 ч. 7 м.
Вид битрейта : Постоянный
Битрейт : 128 Кбит/сек
Каналы : 2 канала
Частота : 48,0 КГц
Метод сжатия : С потерями
Размер потока : 61,6 Мбайт (21%)
Выравнивание : Разделение по промежуткам
Продолжительность промежутка : 24 мс. (0,60 видеокадр)

Скриншоты


_________________
Показать сообщения:    

Текущее время: Сегодня 15:34

Часовой пояс: GMT



Вы не можете начинать темы
Вы не можете отвечать на сообщения
Вы не можете редактировать свои сообщения
Вы не можете удалять свои сообщения
Вы не можете голосовать в опросах
Вы не можете прикреплять файлы к сообщениям
Вы не можете скачивать файлы