Важное объявление!
У Нас Все раздачи мультитрекерные, при нуле пиров в релизах, можете смело вставать на закачку!
 
Автор Сообщение

HUNTER

Стаж:
4 года 4 месяца
Сообщений:
56798

Репутация: 101

[+] [-]
Вне форума [Профиль] [ЛС]

Калифорнийский покер / California Split
Страна: США
Студия: Columbia Pictures Corporation
Жанр: драма, комедия
Год выпуска: 1974
Продолжительность: 01:48:22
Перевод: Профессиональный (двухголосый закадровый) Другое кино
Cубтитры: английские
Оригинальная аудиодорожка: английский
Режиссер: Роберт Олтмен /Robert Altman
В ролях: Джордж Сигал, Эллиотт Гулд, Энн Прентисс, Гвен Уэллс, Эдвард Уолш, Джозеф Уолш, Берт Ремсен, Барбара Лондон, Барбара Руик, Джей Флетчер
Описание: В этой блестящей сатире под раздачу угодила священная корова американского буржуа — удача игрока, большой куш, без которого не обходится почти ни одна истинно голливудская интрига. Можно выиграть очень много денег и оставаться несчастным. Билл Денни и Чарли Уотерс — патологические игроки, которым столь же патологически не везет.
Случайно познакомившись в баре, они понимают, что должны действовать в команде и отправляются в одно из самых шикарных казино Америки. Там им удастся обставить легендарного игрока Амарилло Слима, что, впрочем, не приносит им счастья. Но в этой виртуозной истории, как ни странно, процесс важнее результата. Билл и Чарли играют в карты просто потому, что им нравится.


Sample
Тип релиза: WEB-DL 720p
Контейнер: MKV
Видео: MPEG4 AVC Video, H264, 16:9, 1280x718, 23.976 fps, 4184 kbps
Аудио: Russian (AC3, 6 ch, 448 kbps, 16 bits, 48.0 KHz) - MVO
Аудио 2: English (AC3, 6 ch, 448 kbps, 16 bits, 48.0 KHz) - оригинал
Формат субтитров: softsub (SRT)

MediaInfo

General
Unique ID : 170589756520917930189251937663644514808 (0x8056645C0224BD9E9ABC74BDAE26B9F8)
Complete name : K:\California Split 1974 WEB-DL 720p.mkv
Format : Matroska
Format version : Version 4 / Version 2
File size : 3.92 GiB
Duration : 1h 48mn
Overall bit rate : 5 183 Kbps
Encoded date : UTC 2015-08-15 23:35:42
Writing application : mkvmerge v6.1.0 ('Old Devil') built on Mar 2 2013 14:32:37
Writing library : libebml v1.3.0 + libmatroska v1.4.0
Video
ID : 1
Format : AVC
Format/Info : Advanced Video Codec
Format profile : High@L3.1
Format settings, CABAC : No
Format settings, ReFrames : 2 frames
Codec ID : V_MPEG4/ISO/AVC
Duration : 1h 48mn
Bit rate : 4 184 Kbps
Width : 1 280 pixels
Height : 718 pixels
Display aspect ratio : 16:9
Frame rate mode : Constant
Frame rate : 23.976 fps
Color space : YUV
Chroma subsampling : 4:2:0
Bit depth : 8 bits
Scan type : Progressive
Bits/(Pixel*Frame) : 0.190
Stream size : 3.17 GiB (81%)
Language : English
Default : Yes
Forced : No
Color primaries : BT.709
Transfer characteristics : BT.709
Matrix coefficients : BT.709
Audio #1
ID : 2
Format : AC-3
Format/Info : Audio Coding 3
Mode extension : CM (complete main)
Format settings, Endianness : Big
Codec ID : A_AC3
Duration : 1h 48mn
Bit rate mode : Constant
Bit rate : 448 Kbps
Channel count : 6 channels
Channel positions : Front: L C R, Side: L R, LFE
Sampling rate : 48.0 KHz
Bit depth : 16 bits
Compression mode : Lossy
Stream size : 347 MiB (9%)
Language : Russian
Default : Yes
Forced : No
Audio #2
ID : 3
Format : AC-3
Format/Info : Audio Coding 3
Mode extension : CM (complete main)
Format settings, Endianness : Big
Codec ID : A_AC3
Duration : 1h 48mn
Bit rate mode : Constant
Bit rate : 448 Kbps
Channel count : 6 channels
Channel positions : Front: L C R, Side: L R, LFE
Sampling rate : 48.0 KHz
Bit depth : 16 bits
Compression mode : Lossy
Stream size : 347 MiB (9%)
Language : English
Default : No
Forced : No
Text
ID : 4
Format : UTF-8
Codec ID : S_TEXT/UTF8
Codec ID/Info : UTF-8 Plain Text
Language : English
Default : No
Forced : No
Menu
00:00:00.000 : en:Chapter 1
00:09:52.000 : en:Chapter 2
00:20:56.000 : en:Chapter 3
00:28:36.000 : en:Chapter 4
00:36:14.000 : en:Chapter 5
00:43:33.000 : en:Chapter 6
00:51:57.000 : en:Chapter 7
01:05:56.000 : en:Chapter 8
01:13:09.000 : en:Chapter 9
01:24:52.000 : en:Chapter 10
01:32:08.000 : en:Chapter 11
01:41:57.000 : en:Chapter 12

Скриншоты


_________________
Показать сообщения:    

Текущее время: Сегодня 03:27

Часовой пояс: GMT



Вы не можете начинать темы
Вы не можете отвечать на сообщения
Вы не можете редактировать свои сообщения
Вы не можете удалять свои сообщения
Вы не можете голосовать в опросах
Вы не можете прикреплять файлы к сообщениям
Вы не можете скачивать файлы