Важное объявление!
У Нас Все раздачи мультитрекерные, при нуле пиров в релизах, можете смело вставать на закачку!
 
Автор Сообщение

димитри37

Стаж:
3 года 9 месяцев
Сообщений:
1237

Репутация: 127

[+] [-]
Вне форума [Профиль] [ЛС]

Калина красная
Жанр: Драма
Год выпуска: 1973
Продолжительность: 01:42:00
Режиссёр: Василий Шукшин
В ролях:
Василий Шукшин - Егор Прокудин
Лидия Федосеева-Шукшина - Люба
Георгий Бурков - «Губошлёп»
Иван Рыжов - отец Любы
Ия Арепина - Сестра Егора
Мария Скворцова - мать Любы
Алексей Ванин - Пётр Байкалов, брат Любы
Лев Дуров - официант в ресторане
Наталья Крачковская - гостья на «празднике жизни»
Жанна Прохоренко - следователь
Наталья Гвоздикова - телефонистка
Артур Макаров - вор в законе
Мария Виноградова - жена Петра
Олег Корчиков - Шурка
Татьяна Гаврилова - Люсьен, член «воровской малины»
Николай Погодин - директор совхоза
Описание:
Выйдя из тюрьмы, Егор Прокудин решает податься в деревню, где живёт синеглазая незнакомка Люба, с которой он переписывался. Надо немного переждать и осмотреться. Но жизнь в деревне меняет планы Егора, и он решает порвать с прошлым. Теперь у него есть друзья, работа, любимая женщина. Однако бывшие дружки Егора не собираются мириться с его успокоенностью…

Качество видео: DVDRip-AVC
Формат видео: MKV
Видео: x264 (High@L4.1); Анаморф 708@756x556, Display aspect ratio 4:3, 25.000 fps, 2490 Kbps
Аудио: Оригинал AC-3; 16 bits 48 Khz; 6ch 448 Kbps; CBR

Скриншоты

Источник

MediaInfo

General
Unique ID : 225592873155146405680414101241651113139 (0xA9B79B620EA77A16B33B928B0069ACB3)
Complete name : Калина красная.1973.mkv
Format : Matroska
Format version : Version 2
File size : 2.09 GiB
Duration : 1h 42mn
Overall bit rate : 2 940 Kbps
Encoded date : UTC 2012-05-05 14:47:14
Writing application : mkvmerge v5.5.0 ('Healer') built on Apr 6 2012 21:43:24
Writing library : libebml v1.2.3 + libmatroska v1.3.0
Video
ID : 1
Format : AVC
Format/Info : Advanced Video Codec
Format profile : High@L4.1
Format settings, CABAC : Yes
Format settings, ReFrames : 15 frames
Codec ID : V_MPEG4/ISO/AVC
Duration : 1h 42mn
Bit rate : 2 490 Kbps
Width : 708 pixels
Height : 556 pixels
Display aspect ratio : 4:3
Original display aspect ratio : 4:3
Frame rate : 25.000 fps
Color space : YUV
Chroma subsampling : 4:2:0
Bit depth : 8 bits
Scan type : Progressive
Bits/(Pixel*Frame) : 0.253
Stream size : 1.73 GiB (83%)
Title : Калина красная.1973
Writing library : x264 core 119 r2106 07efeb4
Encoding settings : cabac=1 / ref=15 / deblock=1:-1:-1 / analyse=0x3:0x133 / me=umh / subme=10 / psy=1 / psy_rd=1.05:0.20 / mixed_ref=1 / me_range=48 / chroma_me=1 / trellis=2 / 8x8dct=1 / cqm=0 / deadzone=21,11 / fast_pskip=0 / chroma_qp_offset=-3 / threads=6 / sliced_threads=0 / nr=0 / decimate=0 / interlaced=0 / bluray_compat=0 / constrained_intra=0 / bframes=8 / b_pyramid=2 / b_adapt=2 / b_bias=0 / direct=3 / weightb=1 / open_gop=0 / weightp=2 / keyint=250 / keyint_min=25 / scenecut=40 / intra_refresh=0 / rc_lookahead=60 / rc=2pass / mbtree=1 / bitrate=2490 / ratetol=1.0 / qcomp=0.60 / qpmin=0 / qpmax=69 / qpstep=4 / cplxblur=20.0 / qblur=0.5 / vbv_maxrate=50000 / vbv_bufsize=62500 / nal_hrd=none / ip_ratio=1.40 / aq=1:1.00
Language : Russian
Default : Yes
Forced : No
Color primaries : BT.470-6 System B, BT.470-6 System G, BT.601-6 625, BT.1358 625, BT.1700 625 PAL, BT.1700 625 SECAM
Transfer characteristics : BT.470-6 System B, BT.470-6 System G
Matrix coefficients : BT.470-6 System B, BT.470-6 System G, BT.601-6 625, BT.1358 625, BT.1700 625 PAL, BT.1700 625 SECAM, IEC 61966-2-4 601
Audio
ID : 2
Format : AC-3
Format/Info : Audio Coding 3
Mode extension : CM (complete main)
Codec ID : A_AC3
Duration : 1h 42mn
Bit rate mode : Constant
Bit rate : 448 Kbps
Channel(s) : 6 channels
Channel positions : Front: L C R, Side: L R, LFE
Sampling rate : 48.0 KHz
Bit depth : 16 bits
Compression mode : Lossy
Stream size : 327 MiB (15%)
Title : Оригинал AC-3; 16 bits 48 Khz; 6ch 448 Kbps; CBR
Language : Russian
Default : Yes
Forced : No

x264 log

...last pass...
x264.exe: --pass 2 --sar 16:15 --bitrate 2490 --preset medium --ref 15 --deblock -1:-1 --merange 48 --bframes 8 --direct auto --b-adapt 2 --trellis 2 --no-fast-pskip --no-dct-decimate --psy-rd 1.05:0.20 --vbv-maxrate 50000 --vbv-bufsize 62500 --partitions all --subme 10 --me umh --rc-lookahead 60 --colorprim bt470bg --transfer bt470bg --colormatrix bt470bg --stats "L:\Temp\0104.log" --output "L:\Temp\0104.264" "L:\Temp\0104.avs"
avs [info]: 708x556p 16:15 @ 25/1 fps (cfr)
x264 [info]: using SAR=16/15
x264 [info]: using cpu capabilities: MMX2 SSE2Fast SSSE3 FastShuffle SSE4.2
x264 [info]: profile High, level 4.1
x264 [info]: frame I:721 Avg QP:19.65 size: 58682
x264 [info]: frame P:30613 Avg QP:20.83 size: 31641
x264 [info]: frame B:121666 Avg QP:24.47 size: 7349
x264 [info]: consecutive B-frames: 0.9% 1.4% 7.2% 13.6% 8.2% 66.6% 1.6% 0.2% 0.1%
x264 [info]: mb I I16..4: 6.9% 75.9% 17.2%
x264 [info]: mb P I16..4: 1.3% 15.8% 2.7% P16..4: 37.3% 22.0% 15.6% 2.3% 0.9% skip: 2.1%
x264 [info]: mb B I16..4: 0.1% 1.3% 0.4% B16..8: 41.9% 9.4% 2.3% direct: 8.5% skip:36.1% L0:34.8% L1:40.6% BI:24.6%
x264 [info]: 8x8 transform intra:78.5% inter:61.9%
x264 [info]: direct mvs spatial:98.1% temporal:1.9%
x264 [info]: coded y,uvDC,uvAC intra: 90.1% 79.5% 44.3% inter: 33.9% 25.0% 7.4%
x264 [info]: i16 v,h,dc,p: 43% 19% 15% 22%
x264 [info]: i8 v,h,dc,ddl,ddr,vr,hd,vl,hu: 11% 14% 8% 8% 12% 11% 12% 11% 13%
x264 [info]: i4 v,h,dc,ddl,ddr,vr,hd,vl,hu: 10% 26% 5% 6% 10% 10% 11% 9% 12%
x264 [info]: i8c dc,h,v,p: 35% 27% 22% 16%
x264 [info]: Weighted P-Frames: Y:27.2% UV:10.7%
x264 [info]: ref P L0: 38.1% 14.0% 16.9% 7.0% 5.0% 3.7% 3.3% 1.9% 1.8% 1.6% 1.5% 1.3% 1.3% 1.1% 1.2% 0.4%
x264 [info]: ref B L0: 84.2% 8.1% 2.2% 1.3% 0.8% 0.8% 0.6% 0.4% 0.3% 0.3% 0.3% 0.3% 0.2% 0.1%
x264 [info]: ref B L1: 96.9% 3.1%
x264 [info]: kb/s:2490.26
x264 [total]: encoded 153000 frames, 7.11 fps, 2490.26 kb/s

FAQ по просмотру MKV/h.264/AAC

-
Показать сообщения:    

Текущее время: Сегодня 16:06

Часовой пояс: GMT



Вы не можете начинать темы
Вы не можете отвечать на сообщения
Вы не можете редактировать свои сообщения
Вы не можете удалять свои сообщения
Вы не можете голосовать в опросах
Вы не можете прикреплять файлы к сообщениям
Вы не можете скачивать файлы