Важное объявление!
У Нас Все раздачи мультитрекерные, при нуле пиров в релизах, можете смело вставать на закачку!
 
Автор Сообщение

HUNTER

Стаж:
4 года 4 месяца
Сообщений:
56808

Репутация: 101

[+] [-]
Вне форума [Профиль] [ЛС]

Калигула / Caligula [Extended Uncensored]-
Год выпуска: 1979
Страна: США, Италия
Жанр: для взрослых, драма, история
Продолжительность: 02:35:29
Перевод: Профессиональный (двухголосый, закадровый) П.Гланц и И.Королева
+ Профессиональный (многоголосый, закадровый) Екатеринбург Арт (VHS)
+ Профессиональный (многоголосый, закадровый) РТР
+ Профессиональный (двухголосый, закадровый) Twister
+ Авторский одноголосый А.Попов
+ Авторский одноголосый В.Горчаков (VHS)
Оригинальная звуковая дорожка: English
Субтитры: Russian, French-Режиссер: Тинто Брасс / Tinto Brass, Боб Гуччионе / Bob Guccione, Джанкарло Луи / Giancarlo Lui
В ролях: Малкольм Макдауэлл, Тереза Энн Савой, Гуидо Маннари, Джон Гилгуд, Питер О`Тул, Джанкарло Бадесси, Бруно Бриве, Адриана Асти, Леопольдо Триесте, Паоло Боначелли, Джон Стайнер, Мирелла Д`Анджело, Хелен Миррен, Rick Parets, Паула Митчел, Озириде Певарелло, Донато Пласидо, Аннека Ди Лоренцо, Лори Вагнер, Патрик Аллен, Жерардо Амато
О фильме: Эпик о правлении древнеримского императора Калигулы, вошедшего в историю беспримерной жестокостью, коварством и пороками.-CtrlHD!
Релиз:
Тип релиза: BDRip 720p
Источник: 1080p FRA Blu-ray AVC DTS-HD MA 5.1
Контейнер: MKV
Видео: 1280x692 at 24.000 fps, x264, ~11147 kbps avg
Аудио #01: Russian: 48 kHz, DTS 5.0, ~1509 kbps avg |Двухголосый закадровый, П. Гланц и И. Королёва|
Аудио #02: Russian: 48 kHz, DTS 5.0, ~1509 kbps avg |Одноголосый закадровый, А. Попов|
Аудио #03: Russian: 48 kHz, AC3 2.0, ~192 kbps avg |Многоголосый закадровый, Екатеринбург Арт (VHS)|
Аудио #04: Russian: 48 kHz, AC3 2.0, ~192 kbps avg |Многоголосый закадровый, РТР|
Аудио #05: Russian: 48 kHz, AC3 2.0, ~192 kbps avg |Двухголосый закадровый, Twister|
Аудио #06: Russian: 48 kHz, AC3 2.0, ~192 kbps avg |Одноголосый закадровый, В. Горчаков (VHS)|
Аудио #07: English: 48 kHz, DTS 5.1, ~1509 kbps avg
Семпл-

Source vs CtrlHD vs Old Encode






-

mInfo

Формат : Matroska
Версия формата : Version 4 / Version 2
Размер файла : 17,9 Гбайт
Продолжительность : 2 ч. 35 м.
Общий поток : 16,4 Мбит/сек
Название фильма : Caligula (1979) Extended Uncensored
Дата кодирования : UTC 2015-07-28 14:06:34
Программа кодирования : mkvmerge v8.2.0 ('World of Adventure') 64bit
Библиотека кодирования : libebml v1.3.1 + libmatroska v1.4.2
Attachements : cover.jpg
Видео
Идентификатор : 1
Формат : AVC
Формат/Информация : Advanced Video Codec
Профиль формата : High@L4.1
Параметр CABAC формата : Да
Параметр ReFrames формата : 9 кадров
Идентификатор кодека : V_MPEG4/ISO/AVC
Продолжительность : 2 ч. 35 м.
Битрейт : 10,8 Мбит/сек
Ширина : 1280 пикселей
Высота : 692 пикселя
Соотношение сторон : 1,85:1
Режим частоты кадров : Постоянный
Частота кадров : 24,000 кадра/сек
Цветовое пространство : YUV
Субдискретизация насыщенности : 4:2:0
Битовая глубина : 8 бит
Тип развёртки : Прогрессивная
Бит/(Пиксели*Кадры) : 0.509
Размер потока : 11,8 Гбайт (66%)
Заголовок : Release for HDCLUB
Библиотека кодирования : x264 core 142 r2409+41 9f37d41 tMod [8-bit@4:2:0 X86_64]
Настройки программы : cabac=1 / ref=9 / deblock=1:-3:-3 / analyse=0x3:0x133 / me=umh / subme=10 / psy=1 / fade_compensate=0.00 / psy_rd=1.10:0.00 / mixed_ref=1 / me_range=16 / chroma_me=1 / trellis=2 / 8x8dct=1 / cqm=0 / deadzone=21,11 / fast_pskip=0 / chroma_qp_offset=-2 / threads=6 / lookahead_threads=1 / sliced_threads=0 / nr=0 / decimate=0 / interlaced=0 / bluray_compat=0 / constrained_intra=0 / fgo=0 / bframes=8 / b_pyramid=2 / b_adapt=2 / b_bias=0 / direct=3 / weightb=1 / open_gop=0 / weightp=2 / keyint=250 / keyint_min=24 / scenecut=40 / intra_refresh=0 / rc_lookahead=60 / rc=crf / mbtree=0 / crf=19.0000 / qcomp=0.60 / qpmin=0:0:0 / qpmax=69:69:69 / qpstep=4 / vbv_maxrate=20000 / vbv_bufsize=15000 / crf_max=0.0 / nal_hrd=none / filler=0 / ip_ratio=1.30 / pb_ratio=1.20 / aq=1:0.60 / aq-sensitivity=10.00 / aq-factor=1.00:1.00:1.00 / aq2=1:0.50 / aq2-sensitivity=7.50 / aq2-factor=1.00:1.00:1.00 / aq3=1:[0.50:0.50]:[0.50:0.50]:[0.50:0.50]:[0.50:0.50] / aq3-sensitivity=7.50 / aq3-factor=[1.00:1.00]:[1.00:1.00]:[1.00:1.00] / aq3-boundary=205:56:9
Язык : English
Default : Да
Forced : Нет
Аудио #1
Идентификатор : 2
Формат : DTS
Формат/Информация : Digital Theater Systems
Режим : 16
Параметр Endianness формата : Big
Идентификатор кодека : A_DTS
Продолжительность : 2 ч. 35 м.
Вид битрейта : Постоянный
Битрейт : 1509 Кбит/сек
Каналы : 5 каналов
Расположение каналов : Front: L C R, Side: L R
Частота : 48,0 КГц
Битовая глубина : 16 бит
Метод сжатия : С потерями
Размер потока : 1,64 Гбайт (9%)
Заголовок : Гланц и Королёва
Язык : Russian
Default : Да
Forced : Нет
Аудио #2
Идентификатор : 3
Формат : DTS
Формат/Информация : Digital Theater Systems
Режим : 16
Параметр Endianness формата : Big
Идентификатор кодека : A_DTS
Продолжительность : 2 ч. 35 м.
Вид битрейта : Постоянный
Битрейт : 1509 Кбит/сек
Каналы : 5 каналов
Расположение каналов : Front: L C R, Side: L R
Частота : 48,0 КГц
Битовая глубина : 16 бит
Метод сжатия : С потерями
Размер потока : 1,64 Гбайт (9%)
Заголовок : Попов
Язык : Russian
Default : Нет
Forced : Нет
Аудио #3
Идентификатор : 4
Формат : AC-3
Формат/Информация : Audio Coding 3
Расширение режима : CM (complete main)
Параметр Endianness формата : Big
Идентификатор кодека : A_AC3
Продолжительность : 2 ч. 35 м.
Вид битрейта : Постоянный
Битрейт : 192 Кбит/сек
Каналы : 2 канала
Расположение каналов : Front: L R
Частота : 48,0 КГц
Битовая глубина : 16 бит
Метод сжатия : С потерями
Размер потока : 214 Мбайт (1%)
Заголовок : Екатеринбург Арт
Язык : Russian
Default : Нет
Forced : Нет
Аудио #4
Идентификатор : 5
Формат : AC-3
Формат/Информация : Audio Coding 3
Расширение режима : CM (complete main)
Параметр Endianness формата : Big
Идентификатор кодека : A_AC3
Продолжительность : 2 ч. 35 м.
Вид битрейта : Постоянный
Битрейт : 192 Кбит/сек
Каналы : 2 канала
Расположение каналов : Front: L R
Частота : 48,0 КГц
Битовая глубина : 16 бит
Метод сжатия : С потерями
Размер потока : 214 Мбайт (1%)
Заголовок : РТР
Язык : Russian
Default : Нет
Forced : Нет
Аудио #5
Идентификатор : 6
Формат : AC-3
Формат/Информация : Audio Coding 3
Расширение режима : CM (complete main)
Параметр Endianness формата : Big
Идентификатор кодека : A_AC3
Продолжительность : 2 ч. 35 м.
Вид битрейта : Постоянный
Битрейт : 192 Кбит/сек
Каналы : 2 канала
Расположение каналов : Front: L R
Частота : 48,0 КГц
Битовая глубина : 16 бит
Метод сжатия : С потерями
Размер потока : 214 Мбайт (1%)
Заголовок : Twister
Язык : Russian
Default : Нет
Forced : Нет
Аудио #6
Идентификатор : 7
Формат : AC-3
Формат/Информация : Audio Coding 3
Расширение режима : CM (complete main)
Параметр Endianness формата : Big
Идентификатор кодека : A_AC3
Продолжительность : 2 ч. 35 м.
Вид битрейта : Постоянный
Битрейт : 192 Кбит/сек
Каналы : 2 канала
Расположение каналов : Front: L R
Частота : 48,0 КГц
Битовая глубина : 16 бит
Метод сжатия : С потерями
Размер потока : 214 Мбайт (1%)
Заголовок : Горчаков
Язык : Russian
Default : Нет
Forced : Нет
Аудио #7
Идентификатор : 8
Формат : DTS
Формат/Информация : Digital Theater Systems
Режим : 16
Параметр Endianness формата : Big
Идентификатор кодека : A_DTS
Продолжительность : 2 ч. 35 м.
Вид битрейта : Постоянный
Битрейт : 1509 Кбит/сек
Каналы : 6 каналов
Расположение каналов : Front: L C R, Side: L R, LFE
Частота : 48,0 КГц
Битовая глубина : 16 бит
Метод сжатия : С потерями
Размер потока : 1,64 Гбайт (9%)
Язык : English
Default : Нет
Forced : Нет
Текст #1
Идентификатор : 9
Формат : UTF-8
Идентификатор кодека : S_TEXT/UTF8
Идентификатор кодека/Информация : UTF-8 Plain Text
Язык : Russian
Default : Нет
Forced : Нет
Текст #2
Идентификатор : 10
Формат : UTF-8
Идентификатор кодека : S_TEXT/UTF8
Идентификатор кодека/Информация : UTF-8 Plain Text
Язык : French
Default : Нет
Forced : Нет
Меню
00:00:00.000 : en:Chapter 1
00:26:15.625 : en:Chapter 2
00:42:31.583 : en:Chapter 3
00:50:25.167 : en:Chapter 4
01:06:39.917 : en:Chapter 5
01:19:29.542 : en:Chapter 6
01:36:52.208 : en:Chapter 7
01:53:27.042 : en:Chapter 8
02:06:14.708 : en:Chapter 9
02:19:48.292 : en:Chapter 10
02:28:18.042 : en:Chapter 11
02:33:38.458 : en:Chapter 12
-

_________________
Показать сообщения:    

Текущее время: Сегодня 08:28

Часовой пояс: GMT



Вы не можете начинать темы
Вы не можете отвечать на сообщения
Вы не можете редактировать свои сообщения
Вы не можете удалять свои сообщения
Вы не можете голосовать в опросах
Вы не можете прикреплять файлы к сообщениям
Вы не можете скачивать файлы