Важное объявление!
У Нас Все раздачи мультитрекерные, при нуле пиров в релизах, можете смело вставать на закачку!
 
Автор Сообщение

HUNTER

Стаж:
4 года 4 месяца
Сообщений:
56765

Репутация: 101

[+] [-]
Вне форума [Профиль] [ЛС]

Как украсть небоскреб / Tower Heist-
Страна: США
Жанр: Комедия, криминал
Год выпуска: 2011
Продолжительность: 01:44:33-Перевод 1: Профессиональный (полное дублирование)
Перевод 2: Одноголосый закадровый - Вадим Белов
Перевод 3: Одноголосый закадровый - Антон Киреев
Перевод 4: Авторский (одноголосый закадровый) - Юрий Немахов
Формат субтитров: srt, pgs
Оригинальная аудиодорожка: Английская-Режиссёр: Бретт Рэтнер / Brett Ratner-В ролях: Бен Стиллер, Эдди Мёрфи, Кейси Аффлек, Алан Алда, Мэттью Бродерик, Теа Леони, Майкл Пенья, Стефен Хендерсон, Джадд Хёрш-Описание: Джошу Ковачу не повезло - его поимел злобный финансист, живущий в роскошных апартаментах на верхнем этаже небоскреба. Чтобы вернуть деньги, Джош с друзьями решается на грандиозную кражу со взломом.
Но одним им это не под силу, и они обращаются к матерому преступнику. Дело за малым - шесть новоявленных друзей Джоушена должны пробраться в пентхаус и отыскать 20 миллионов долларов.-Доп. инфо: За приобретение дороги Вадима Белова, спасибо Jiraya87 и пользователям форума e180: safreks, kass, dino crisis, ANISKIN50, zeleniy, Dr. Crane, пуля, bushido, за работу со звуком спасибо Anoobis. За дорожки Антона Киреева и Юрия Немахова спасибо Jiraya87.-Релиз от -Тип релиза: BDRemux
Контейнер: MKV
Видео: MPEG-4 AVC / 30958 kbps / 1080p / 23.976 fps / 16:9 / High Profile 4.1
Аудио 1: Русский дубляж / DTS / 5.1 / 768 kbps / 48 kHz
Аудио 2: Русский одноголосый закадровый / DTS-HD MA / 5.1 / 3722 kbps / 48 kHz / 24-bit (DTS Core: 5.1 / 48 kHz / 1509 kbps / 24-bit) (Вадим Белов)
Аудио 3: Русский одноголосый закадровый / DTS-HD MA / 5.1 / 3629 kbps / 48 kHz / 24-bit (DTS Core: 5.1 / 48 kHz / 1509 kbps / 24-bit) (Антон Киреев)
Аудио 4: Русский одноголосый закадровый / DTS-HD MA / 5.1 / 3730 kbps / 48 kHz / 24-bit (DTS Core: 5.1 / 48 kHz / 1509 kbps / 24-bit) (Юрий Немахов)
Аудио 5: Английский / DTS-HD MA / 5.1 / 3718 kbps / 48 kHz / 24-bit (DTS Core: 5.1 / 48 kHz / 1509 kbps / 24-bit)
Аудио 6: Английский / Dolby Digital / 2.0 / 192 kbps / 48 kHz (Commentary with Director Brett Ratner, Editor Mark Helfrich and Co-Writers Ted Griffin & Jeff Nathanson)
Cубтитры 1: Русские srt (только надписи и пр.)
Cубтитры 2: Русские srt
Cубтитры 3: Русские srt (коменты)
Cубтитры 4: Украинские srt
Cубтитры 5: Английские srt
Cубтитры 6: Английские SDH srt
Cубтитры 7: Русские pgs (коменты)
Cубтитры 8: Английские SDH pgs
Чаптеры: есть- -

Скриншоты


MediaInfo

Код:
Полное имя                       : Tower.Heist.2011.Blu-ray.1080p.AVC.4xRus.Eng.mkv
Формат                           : Matroska
Версия формата                   : Version 4 / Version 2
Размер файла                     : 34,2 Гбайт
Продолжительность                : 1 ч. 44 м.
Режим общего битрейта            : Переменный
Общий поток                      : 46,8 Мбит/сек
Название фильма                  : HANSMER
Дата кодирования                 : UTC 2014-01-25 17:59:25
Программа кодирования            : mkvmerge v6.7.0 ('Back to the Ground') 32bit built on Jan  8 2014 15:03:17
Библиотека кодирования           : libebml v1.3.0 + libmatroska v1.4.1
Видео
Идентификатор                    : 1
Формат                           : AVC
Формат/Информация                : Advanced Video Codec
Профиль формата                  : High@L4.1
Параметр CABAC формата           : Да
Параметр ReFrames формата        : 4 кадра
Идентификатор кодека             : V_MPEG4/ISO/AVC
Продолжительность                : 1 ч. 44 м.
Вид битрейта                     : Переменный
Битрейт                          : 36,9 Мбит/сек
Максимальный битрейт             : 33,0 Мбит/сек
Ширина                           : 1920 пикселей
Высота                           : 1080 пикселей
Соотношение сторон               : 16:9
Частота кадров                   : 23,976 кадра/сек
Цветовое пространство            : YUV
Субдискретизация насыщенности    : 4:2:0
Битовая глубина                  : 8 бит
Тип развёртки                    : Прогрессивная
Бит/(Пиксели*Кадры)              : 0.743
Размер потока                    : 27,0 Гбайт (79%)
Заголовок                        : 30958 kbps
Язык                             : English
Основные цвета                   : BT.709-5, BT.1361, IEC 61966-2-4, SMPTE RP177
Характеристики трансфера         : BT.709-5, BT.1361
Коэффициенты матрицы             : BT.709-5, BT.1361, IEC 61966-2-4 709, SMPTE RP177
Аудио #1
Идентификатор                    : 2
Формат                           : DTS
Формат/Информация                : Digital Theater Systems
Идентификатор кодека             : A_DTS
Продолжительность                : 1 ч. 44 м.
Вид битрейта                     : Постоянный
Битрейт                          : 755 Кбит/сек
Каналы                           : 6 каналов
Расположение каналов             : Front: L C R, Side: L R, LFE
Частота                          : 48,0 КГц
Битовая глубина                  : 24 бит
Метод сжатия                     : С потерями
Размер потока                    : 564 Мбайт (2%)
Заголовок                        : Dub
Язык                             : Russian
Аудио #2
Идентификатор                    : 3
Формат                           : DTS
Формат/Информация                : Digital Theater Systems
Профиль формата                  : MA / Core
Идентификатор кодека             : A_DTS
Продолжительность                : 1 ч. 44 м.
Вид битрейта                     : Переменный
Битрейт                          : 1561 Кбит/сек / 1510 Кбит/сек
Каналы                           : 6 каналов
Расположение каналов             : Front: L C R, Side: L R, LFE
Частота                          : 48,0 КГц
Битовая глубина                  : 24 бит
Метод сжатия                     : Без потерь / Lossy
Заголовок                        : [V.Belov] DTS-HD MA 5.1 @ 3722 kbps
Язык                             : Russian
Аудио #3
Идентификатор                    : 4
Формат                           : DTS
Формат/Информация                : Digital Theater Systems
Профиль формата                  : MA / Core
Идентификатор кодека             : A_DTS
Продолжительность                : 1 ч. 44 м.
Вид битрейта                     : Переменный
Битрейт                          : 2407 Кбит/сек / 1510 Кбит/сек
Каналы                           : 6 каналов
Расположение каналов             : Front: L C R, Side: L R, LFE
Частота                          : 48,0 КГц
Битовая глубина                  : 24 бит
Метод сжатия                     : Без потерь / Lossy
Заголовок                        : [А.Kireev] DTS-HD MA 5.1 @ 3629 kbps
Язык                             : Russian
Аудио #4
Идентификатор                    : 5
Формат                           : DTS
Формат/Информация                : Digital Theater Systems
Профиль формата                  : MA / Core
Идентификатор кодека             : A_DTS
Продолжительность                : 1 ч. 44 м.
Вид битрейта                     : Переменный
Битрейт                          : 1561 Кбит/сек / 1510 Кбит/сек
Каналы                           : 6 каналов
Расположение каналов             : Front: L C R, Side: L R, LFE
Частота                          : 48,0 КГц
Битовая глубина                  : 24 бит
Метод сжатия                     : Без потерь / Lossy
Заголовок                        : [J.Nemahov] DTS-HD MA 5.1 @ 3730 kbps
Язык                             : Russian
Аудио #5
Идентификатор                    : 6
Формат                           : DTS
Формат/Информация                : Digital Theater Systems
Профиль формата                  : MA / Core
Идентификатор кодека             : A_DTS
Продолжительность                : 1 ч. 44 м.
Вид битрейта                     : Переменный
Битрейт                          : 2437 Кбит/сек / 1510 Кбит/сек
Каналы                           : 6 каналов
Расположение каналов             : Front: L C R, Side: L R, LFE
Частота                          : 48,0 КГц
Битовая глубина                  : 24 бит
Метод сжатия                     : Без потерь / Lossy
Заголовок                        : DTS-HD MA 5.1 @ 3718 kbps
Язык                             : English
Аудио #6
Идентификатор                    : 7
Формат                           : AC-3
Формат/Информация                : Audio Coding 3
Профиль формата                  : Dolby Digital
Расширение режима                : CM (complete main)
Идентификатор кодека             : A_AC3
Продолжительность                : 1 ч. 44 м.
Вид битрейта                     : Постоянный
Битрейт                          : 192 Кбит/сек
Каналы                           : 2 канала
Расположение каналов             : Front: L R
Частота                          : 48,0 КГц
Битовая глубина                  : 16 бит
Метод сжатия                     : С потерями
Размер потока                    : 144 Мбайт (0%)
Заголовок                        : Commentary with Director Brett Ratner, Editor Mark Helfrich and Co-Writers Ted Griffin & Jeff Nathanson
Язык                             : English
Текст #1
Идентификатор                    : 8
Формат                           : UTF-8
Идентификатор кодека             : S_TEXT/UTF8
Идентификатор кодека/Информация  : UTF-8 Plain Text
Заголовок                        : Forced
Язык                             : Russian
Текст #2
Идентификатор                    : 9
Формат                           : UTF-8
Идентификатор кодека             : S_TEXT/UTF8
Идентификатор кодека/Информация  : UTF-8 Plain Text
Заголовок                        : Full
Язык                             : Russian
Текст #3
Идентификатор                    : 10
Формат                           : UTF-8
Идентификатор кодека             : S_TEXT/UTF8
Идентификатор кодека/Информация  : UTF-8 Plain Text
Заголовок                        : Commentary
Язык                             : Russian
Текст #4
Идентификатор                    : 11
Формат                           : UTF-8
Идентификатор кодека             : S_TEXT/UTF8
Идентификатор кодека/Информация  : UTF-8 Plain Text
Язык                             : Ukrainian
Текст #5
Идентификатор                    : 12
Формат                           : UTF-8
Идентификатор кодека             : S_TEXT/UTF8
Идентификатор кодека/Информация  : UTF-8 Plain Text
Язык                             : English
Текст #6
Идентификатор                    : 13
Формат                           : UTF-8
Идентификатор кодека             : S_TEXT/UTF8
Идентификатор кодека/Информация  : UTF-8 Plain Text
Заголовок                        : SDH
Язык                             : English
Текст #7
Идентификатор                    : 14
Формат                           : PGS
Идентификатор кодека             : S_HDMV/PGS
Идентификатор кодека/Информация  : The same subtitle format used on BDs/HD-DVDs
Заголовок                        : PGS Commentary
Язык                             : Russian
Текст #8
Идентификатор                    : 15
Формат                           : PGS
Идентификатор кодека             : S_HDMV/PGS
Идентификатор кодека/Информация  : The same subtitle format used on BDs/HD-DVDs
Заголовок                        : PGS SDH
Язык                             : English
Меню
00:00:00.000                     : en:Chapter 1
00:03:23.203                     : en:Chapter 2
00:09:20.810                     : en:Chapter 3
00:14:09.599                     : en:Chapter 4
00:19:13.778                     : en:Chapter 5
00:23:41.503                     : en:Chapter 6
00:27:16.468                     : en:Chapter 7
00:32:05.549                     : en:Chapter 8
00:38:16.377                     : en:Chapter 9
00:43:57.260                     : en:Chapter 10
00:49:20.541                     : en:Chapter 11
00:53:42.594                     : en:Chapter 12
00:56:58.582                     : en:Chapter 13
01:01:46.995                     : en:Chapter 14
01:06:22.687                     : en:Chapter 15
01:11:30.161                     : en:Chapter 16
01:17:13.504                     : en:Chapter 17
01:23:09.568                     : en:Chapter 18
01:31:52.257                     : en:Chapter 19
01:38:42.125                     : en:Chapter 20
26.01.2014 торрент перезалит: заменён дубляж (с BD), добавлены одноголосые дорожки, полные и на дорожку с коментами русские субтитры.

_________________
Показать сообщения:    

Текущее время: Сегодня 03:39

Часовой пояс: GMT



Вы не можете начинать темы
Вы не можете отвечать на сообщения
Вы не можете редактировать свои сообщения
Вы не можете удалять свои сообщения
Вы не можете голосовать в опросах
Вы не можете прикреплять файлы к сообщениям
Вы не можете скачивать файлы