Важное объявление!
У Нас Все раздачи мультитрекерные, при нуле пиров в релизах, можете смело вставать на закачку!
 
Автор Сообщение

HUNTER

Стаж:
4 года 4 месяца
Сообщений:
56755

Репутация: 101

[+] [-]
Вне форума [Профиль] [ЛС]


Как удачно выйти замуж, или Как не допустить ошибок при выборе будущего мужа-Год выпуска: 2009
Страна: Россия
Сайт производителя: отсутствуeт
Тематика: психология
Тип материала: Обучающее видео
Продолжительность: 01:02:48
Автор: Игорь Пелинский
Язык: Русский
Субтитры: отсутствуют-Описание: Женщины и девушки всегда мечтают о счастливом, удачном замужестве. Но надо помнить, что замужество, с психологической точки зрения, - весьма сложный процесс перестройки психики человека и для этого требуется серьезная подготовка. Избранник вполне может оказаться носителем как "новейшей морали", так и древнейших предрассудков.
Поэтому так необходимы знания о социальных и психологических истоках брака. Брак по любви и по расчету, - какой из них крепче? Надо ли прислушиваться к мнению родителей и подруг о вашем избраннике? Где и как можно познакомиться с будущим мужем? Как повысить свою самооценку, чтобы не бояться и не комплексовать при знакомствах с противоположным полом? Можно ли вообще спланировать счастливую жизнь после замужества? Ведь часто несоответствие брака ожиданиям супругов становится причиной неудачного замужества. Известный семейный психолог просто и доступно ответит на эти и многие другие вопросы. Наш фильм не обрушивает на зрителей ни проповедей, ни поучений, он дает информацию к размышлению и возможному действию.
-Качество: DVDRip
Формат: AVI
Видео кодек: XviD
Аудио кодек: MP3
Видео: 640x360 (1.78:1), 25 fps, XviD build 50 ~1424 kbps avg, 0.25 bit/pixel
Аудио: 48 kHz, MPEG Layer 3, 2 ch, ~121.74 kbps avg-

MediaInfo

Код: copyText_writeLink('this.parentNode.parentNode.nextSibling.nextSibling'); Общее
Полное имя : D:\обуч\Kak.udachno.viyti.zamuj.2009.XviD.DVDRip.Kinozal.TV.avi
Формат : AVI
Формат/Информация : Audio Video Interleave
Размер файла : 701 Мбайт
Продолжительность : 1 ч. 2 м.
Режим общего битрейта : Переменный
Общий поток : 1559 Кбит/сек
Программа кодирования : VirtualDubMod 1.5.10.2 (build 2540/release)
Библиотека кодирования : VirtualDubMod build 2540/release
Видео
Идентификатор : 0
Формат : MPEG-4 Visual
Профиль формата : Advanced Simple@L5
Параметр BVOP формата : 1
Параметр QPel формата : Нет
Параметр GMC формата : Без точки перехода
Параметр матрицы формата : Default (MPEG)
Идентификатор кодека : XVID
Идентификатор кодека/Подсказка : XviD
Продолжительность : 1 ч. 2 м.
Битрейт : 1425 Кбит/сек
Ширина : 640 пикселей
Высота : 360 пикселей
Соотношение сторон : 16:9
Частота кадров : 25,000 кадров/сек
Цветовое пространство : YUV
Субдискретизация насыщенности : 4:2:0
Битовая глубина : 8 бит
Тип развёртки : Прогрессивная
Метод сжатия : С потерями
Бит/(Пиксели*Кадры) : 0.247
Размер потока : 640 Мбайт (91%)
Библиотека кодирования : XviD 1.2.1 (UTC 2008-12-04)
Аудио
Идентификатор : 1
Формат : MPEG Audio
Версия формата : Version 1
Профиль формата : Layer 3
Идентификатор кодека : 55
Идентификатор кодека/Подсказка : MP3
Продолжительность : 1 ч. 2 м.
Вид битрейта : Переменный
Битрейт : 122 Кбит/сек
Номинальный битрейт : 128 Кбит/сек
Каналы : 2 канала
Частота : 48,0 КГц
Метод сжатия : С потерями
Размер потока : 54,7 Мбайт (8%)
Выравнивание : Соединение по промежуткам
Продолжительность промежутка : 24 мс. (0,60 видеокадр)
Время предзагрузки промежутка : 542 мс.
Библиотека кодирования : LAME3.98r
Настройки программы : -m s -V 4 -q 2 -lowpass 17 --abr 128

Скриншоты

-

_________________
Показать сообщения:    

Текущее время: Сегодня 09:47

Часовой пояс: GMT



Вы не можете начинать темы
Вы не можете отвечать на сообщения
Вы не можете редактировать свои сообщения
Вы не можете удалять свои сообщения
Вы не можете голосовать в опросах
Вы не можете прикреплять файлы к сообщениям
Вы не можете скачивать файлы