Важное объявление!
У Нас Все раздачи мультитрекерные, при нуле пиров в релизах, можете смело вставать на закачку!
 
Автор Сообщение

HUNTER

Стаж:
4 года 4 месяца
Сообщений:
56790

Репутация: 101

[+] [-]
Вне форума [Профиль] [ЛС]

Как трусливый Роберт Форд убил Джесси Джеймса
The Assassination of Jesse James by the Coward Robert Ford
Год выпуска: 2007
Страна: США, Канада
Жанр: драма, криминал, вестерн, биография, история
Продолжительность: 02:39:41
Перевод:
- профессиональный (многоголосый закадровый, R5)
- профессиональный (многоголосый закадровый, Киномания)
- профессиональный (двухголосый закадровый, Гланц и Королёва)
- авторский (одноголосый закадровый, Сербин)
Субтитры: русские, английские
Оригинальная аудиодорожка: английский
Режиссер: Эндрю Доминик / Andrew Dominik
В ролях: Брэд Питт, Мэри-Луиза Паркер, Бруклин Пру, Дастин Боллинджер, Кейси Аффлек, Сэм Рокуэлл, Джереми Реннер, Сэм Шепард, Гаррет Диллахант, Пол Шнайдер
Описание: История самого печально известного преступника Америки времен Дикого Запада. Дерзкий и непредсказуемый Джесси Джеймс — легендарный вор. Он всегда тщательно планирует свои нападения, и ведет войну с теми, кто наживает деньги и славу, прикрываясь его именем.
В 1881 году в ряды банды Джеймса вступает Роберт Форд. Со временем Джесси падает в глазах Форда, который никогда не отличался смелостью. Никто и не мог предположить, что именно этот трусливый юнец, возмущенный поведением главаря, отважится на убийство Джесси.
Рейтинг MPAA: -Доп. информация:
IMDb: 7.6/10
Kinopoisk: 7.316/10
Sample-

Интересные факты о фильме

  • Главными претендентами на роль Роберта Форда были Кэйси Аффлек и Шайа ЛаБаф. В конечном счёте роль досталась первому из них, поскольку ЛаБафа посчитали слишком молодым для неё.
  • Первоначально выход фильма в прокат был запланирован на сентябрь 2006 года, но из-за творческих разногласий между режиссёром Эндрю Домиником и киностудией, а также неудачных тестовых просмотров, премьера дважды откладывалась, сначала на февраль 2007 года и затем на сентябрь 2007 года.
  • В контракт Брэда Питта по настоянию актёра был включен специальный пункт, по которому изменение названия фильма не допускалось ни при каких условиях.
  • Съёмки картины проходили с 9 августа по 10 декабря 2005 года главным образом в канадской провинции Альберта. Ряд сцен были также отсняты в историческом районе Exchange District канадского города Виннипег.
  • Городок Крид в штате Колорадо, где происходит значительная часть событий в фильме, был воссоздан на съёмочной площадке стоимостью в 1 млн. долларов неподалёку от местечка Гоут-Крик в канадской провинции Альберта.
  • Роль брата Роберта Форда, Чарли, должна была достаться Гаррету Дилаханту, который получил её из-за большого внешнего сходства с Кэйси Аффлеком. Из-за занятости актера в телевизионных проектах решение пришлось пересмотреть, и в результате эта роль отошла Сэму Роквэллу, а Дилахант довольствовался значительно меньшей ролью одного из членов банды Эдварда Миллера.
  • Живущие в настоящее время потомки легендарного Джесси Джеймса очень тепло отзывались о фильме, особенно высоко отмечая актерские работы двух исполнителей главных ролей Брэда Питта и Кэйси Аффлека.
  • В 1863 году ещё в подростковом возрасте Джесси Джеймс потерял часть среднего пальца на левой руке и в одной из начальных сцен фильма это его увечье открывается зрителям. В этой и во всех последующих сценах верхняя часть соответствующего пальца игравшего его Брэда Питта была аккуратно затёрта с помощью компьютерной графики.
  • Первоначальный вариант картины длился четыре часа. Но в дело вступила студия Warner Bros. и урезала фильм почти на полтора часа.
  • Брэд Питт во время съемок был на девять лет старше Джесси Джеймса на момент его смерти.
  • Кейси Аффлек во время съемок был на десять лет старше Роберта Форда на момент его смерти.

Награды и номинации

Оскар, 2008 год
Номинации (2):
* Лучшая мужская роль второго плана (Кейси Аффлек)
* Лучшая работа оператора
Золотой глобус, 2008 год
Номинации (1):
* Лучшая мужская роль второго плана (Кейси Аффлек)
Венецианский кинофестиваль, 2007 год
Победитель (1):
* Кубок Вольпи за лучшую мужскую роль (Брэд Питт)
Номинации (1):
* Золотой лев
Качество: BDRip 1080p
Формат: MKV
Видео: H.264, 1920x800 (2.4:1), 9325 kbps, 23.976 fps
Аудио №1: Russian, AC3, 6ch, 48 kHz, 384 kbps (Многоголосый, R5)
Аудио №2: Russian, AC3, 6ch, 48 kHz, 384 kbps (Многоголосый, Киномания)
Аудио №3: Russian, AC3, 6ch, 48 kHz, 448 kbps (Двухголосый, Гланц и Королёва)
Аудио №4: Russian, AC3, 6ch, 48 kHz, 640 kbps (Одноголосый, Сербин)
Аудио №5: English, AC3, 6ch, 48 kHz, 640 kbps (Оригинал)
Субтитры №1: Russian, SRT
Субтитры №2: English, SRT-

Сравнение

Source

tRuAVC

MIFAL

MediaInfo

Format : Matroska
Format version : Version 4 / Version 2
File size : 13.2 GiB
Duration : 2h 39mn
Overall bit rate : 11.8 Mbps
Encoded date : UTC 2014-12-31 14:55:53
Writing application : mkvmerge v6.9.1 ('Blue Panther') 64bit built on Apr 18 2014 18:23:38
Writing library : libebml v1.3.0 + libmatroska v1.4.1
Attachment : Yes
Video
ID : 1
Format : AVC
Format/Info : Advanced Video Codec
Format profile : High@L4.1
Format settings, CABAC : Yes
Format settings, ReFrames : 5 frames
Codec ID : V_MPEG4/ISO/AVC
Duration : 2h 39mn
Bit rate : 9 093 Kbps
Width : 1 920 pixels
Height : 800 pixels
Display aspect ratio : 2.40:1
Frame rate mode : Constant
Frame rate : 23.976 fps
Color space : YUV
Chroma subsampling : 4:2:0
Bit depth : 8 bits
Scan type : Progressive
Bits/(Pixel*Frame) : 0.247
Stream size : 10.1 GiB (77%)
Writing library : x264 core 144 r2525kMod 40bb568
Encoding settings : cabac=1 / ref=5 / deblock=1:-3:-3 / analyse=0x3:0x133 / me=umh / subme=11 / psy=1 / fade_compensate=0.00 / psy_rd=0.90:0.03 / mixed_ref=1 / me_range=32 / chroma_me=1 / trellis=2 / 8x8dct=1 / cqm=0 / deadzone=21,11 / fast_pskip=0 / chroma_qp_offset=-3 / threads=6 / lookahead_threads=1 / sliced_threads=0 / nr=0 / decimate=1 / interlaced=0 / bluray_compat=0 / constrained_intra=0 / fgo=0 / bframes=12 / b_pyramid=2 / b_adapt=2 / b_bias=0 / direct=1 / weightb=1 / open_gop=0 / weightp=2 / keyint=250 / keyint_min=23 / scenecut=40 / intra_refresh=0 / rc_lookahead=40 / rc=crf / mbtree=0 / crf=18.5000 / qcomp=0.65 / qpmin=0 / qpmax=69 / qpstep=4 / vbv_maxrate=50000 / vbv_bufsize=62500 / crf_max=0.0 / nal_hrd=none / filler=0 / ip_ratio=1.40 / pb_ratio=1.30 / aq=3:0.75
Language : English
Default : Yes
Forced : No
Matrix coefficients : BT.709
Audio #1
ID : 2
Format : AC-3
Format/Info : Audio Coding 3
Mode extension : CM (complete main)
Format settings, Endianness : Big
Codec ID : A_AC3
Duration : 2h 39mn
Bit rate mode : Constant
Bit rate : 384 Kbps
Channel(s) : 6 channels
Channel positions : Front: L C R, Side: L R, LFE
Sampling rate : 48.0 KHz
Bit depth : 16 bits
Compression mode : Lossy
Stream size : 439 MiB (3%)
Title : MVO, R5
Language : Russian
Default : Yes
Forced : No
Audio #2
ID : 3
Format : AC-3
Format/Info : Audio Coding 3
Mode extension : CM (complete main)
Format settings, Endianness : Big
Codec ID : A_AC3
Duration : 2h 39mn
Bit rate mode : Constant
Bit rate : 384 Kbps
Channel(s) : 6 channels
Channel positions : Front: L C R, Side: L R, LFE
Sampling rate : 48.0 KHz
Bit depth : 16 bits
Compression mode : Lossy
Stream size : 439 MiB (3%)
Title : MVO, Kinomania
Language : Russian
Default : No
Forced : No
Audio #3
ID : 4
Format : AC-3
Format/Info : Audio Coding 3
Mode extension : CM (complete main)
Format settings, Endianness : Big
Codec ID : A_AC3
Duration : 2h 39mn
Bit rate mode : Constant
Bit rate : 448 Kbps
Channel(s) : 6 channels
Channel positions : Front: L C R, Side: L R, LFE
Sampling rate : 48.0 KHz
Bit depth : 16 bits
Compression mode : Lossy
Stream size : 512 MiB (4%)
Title : DVO, Glanz & Koroleva
Language : Russian
Default : No
Forced : No
Audio #4
ID : 5
Format : AC-3
Format/Info : Audio Coding 3
Mode extension : CM (complete main)
Format settings, Endianness : Big
Codec ID : A_AC3
Duration : 2h 39mn
Bit rate mode : Constant
Bit rate : 640 Kbps
Channel(s) : 6 channels
Channel positions : Front: L C R, Side: L R, LFE
Sampling rate : 48.0 KHz
Bit depth : 16 bits
Compression mode : Lossy
Stream size : 731 MiB (5%)
Title : AVO, Serbin
Language : Russian
Default : No
Forced : No
Audio #5
ID : 6
Format : AC-3
Format/Info : Audio Coding 3
Mode extension : CM (complete main)
Format settings, Endianness : Big
Codec ID : A_AC3
Duration : 2h 39mn
Bit rate mode : Constant
Bit rate : 640 Kbps
Channel(s) : 6 channels
Channel positions : Front: L C R, Side: L R, LFE
Sampling rate : 48.0 KHz
Bit depth : 16 bits
Compression mode : Lossy
Stream size : 731 MiB (5%)
Title : Original
Language : English
Default : No
Forced : No
Text #1
ID : 7
Format : UTF-8
Codec ID : S_TEXT/UTF8
Codec ID/Info : UTF-8 Plain Text
Language : Russian
Default : No
Forced : No
Text #2
ID : 8
Format : UTF-8
Codec ID : S_TEXT/UTF8
Codec ID/Info : UTF-8 Plain Text
Language : English
Default : No
Forced : No
Menu
00:00:00.000 : en:Prologue Portrait
00:03:26.372 : en:Appetite for Greater Things
00:09:39.412 : en:Call Me Gregarious
00:12:54.273 : en:Petty Thieves and Rubes
00:16:50.676 : en:Blue Cut Robbery
00:21:56.481 : en:No More Shenanigans
00:25:57.222 : en:Cigars and Lies
00:28:26.705 : en:Names of Enemies
00:33:44.355 : en:Sent Home
00:36:59.050 : en:Threats and Mysteries
00:42:57.575 : en:My Daddy's Wife
00:48:59.937 : en:Jesse Stops By
00:55:33.330 : en:Where's Jim?
01:02:55.772 : en:Shootin' Scrape
01:08:46.956 : en:Snow Grave
01:11:10.266 : en:Overlapping Stories
01:17:33.315 : en:Acting Testy
01:21:29.885 : en:Catch-Up With Miller
01:27:07.555 : en:No Peace When He's Around
01:30:03.398 : en:Craig Rifles Ball
01:34:19.153 : en:Cup of Iniquity
01:36:41.462 : en:Other Side of the Ice
01:40:16.176 : en:You've Been Chosen
01:44:59.459 : en:Just a Human Beings
01:48:29.336 : en:Creep up From Behind
01:53:25.632 : en:By Way of Apology
01:59:24.490 : en:Imagining Himself
02:02:53.366 : en:April 3rd, 1882
02:06:29.915 : en:News Report
02:09:18.250 : en:Assassination
02:15:01.760 : en:Final Shots
02:17:02.214 : en:Stage Portrayal
02:21:05.957 : en:Charlie's Final Curtain
02:22:30.041 : en:I'm Robert Ford
02:26:15.433 : en:No Applause
02:30:05.663 : en:No Eulogies
02:32:21.132 : en:End Credits

x264 log

x264 [info]: frame I:1368 Avg QP:15.55 size:155226
x264 [info]: frame P:42313 Avg QP:17.12 size: 88752
x264 [info]: frame B:186025 Avg QP:19.58 size: 38701
x264 [info]: consecutive B-frames: 0.9% 1.8% 3.8% 5.1% 22.3% 48.9% 2.9% 8.0% 1.1% 0.6% 2.6% 0.9% 1.0%
x264 [info]: mb I I16..4: 11.3% 76.5% 12.2%
x264 [info]: mb P I16..4: 1.1% 21.4% 1.4% P16..4: 28.6% 32.6% 8.2% 1.2% 0.0% skip: 5.4%
x264 [info]: mb B I16..4: 0.1% 2.8% 0.1% B16..8: 35.6% 16.6% 2.3% direct:12.1% skip:30.4% L0:38.4% L1:39.2% BI:22.4%
x264 [info]: 8x8 transform intra:89.1% inter:39.4%
x264 [info]: coded y,uvDC,uvAC intra: 95.2% 79.6% 54.0% inter: 37.1% 19.7% 1.8%
x264 [info]: i16 v,h,dc,p: 30% 7% 14% 49%
x264 [info]: i8 v,h,dc,ddl,ddr,vr,hd,vl,hu: 10% 7% 14% 10% 12% 11% 11% 12% 13%
x264 [info]: i4 v,h,dc,ddl,ddr,vr,hd,vl,hu: 9% 6% 10% 10% 14% 13% 13% 12% 14%
x264 [info]: i8c dc,h,v,p: 33% 28% 25% 14%
x264 [info]: Weighted P-Frames: Y:7.5% UV:4.5%
x264 [info]: ref P L0: 45.4% 7.7% 24.7% 10.8% 10.4% 1.0% 0.0%
x264 [info]: ref B L0: 78.2% 16.5% 4.3% 1.0%
x264 [info]: ref B L1: 91.9% 8.1%
x264 [info]: kb/s:9324.67
x264 [info]: encoded 229706 frames, 2.88 fps, 9324.67 kb/s, duration 22:07:56.85

-

Скриншоты


-Релиз от группы -

_________________
Показать сообщения:    

Текущее время: Сегодня 08:50

Часовой пояс: GMT



Вы не можете начинать темы
Вы не можете отвечать на сообщения
Вы не можете редактировать свои сообщения
Вы не можете удалять свои сообщения
Вы не можете голосовать в опросах
Вы не можете прикреплять файлы к сообщениям
Вы не можете скачивать файлы