Важное объявление!
У Нас Все раздачи мультитрекерные, при нуле пиров в релизах, можете смело вставать на закачку!
 
Автор Сообщение

димитри37

Стаж:
3 года 8 месяцев
Сообщений:
1237

Репутация: 127

[+] [-]
Вне форума [Профиль] [ЛС]

Как справиться с отцом / Наравне с отцом / Getting Even with Dad
Страна: США
Жанр: Комедия
Год выпуска: 1994
Продолжительность: 1:48:45
Перевод: Профессиональный (двухголосый закадровый) РЕН ТВ
Cубтитры: нет
Оригинальная аудиодорожка: нет
Режиссер: Хауард Дойч / Howard Deutch
В ролях: Маколэй Калкин /Macaulay Culkin/, Тед Дэнсон /Ted Danson/, Гленн Хедли /Glenn Headly/, Сол Рубинек /Saul Rubinek/, Гэйлард Сартэйн /Gailard Sartain/, Кэтлин Уилхойте /Kathleen Wilhoite/, Сидни Уокер /Sydney Walker/, Рон Канада /Ron Canada/, Гектор Элизондо /Hector Elizondo/, Сэм МакМюррей /Sam McMurray/, Шерил Ли /Sheryl Lee/, Дэн Флорек /Dann Florek/
Описание: Папа (Дэнсон), отсидевший в тюрьме за грабеж, планирует новое ограбление, а тут сестра привозит к нему его сына (Калкин). Его мама умерла, и он живет у тети. Ограбление прошло успешно, но мальчишка увидел, как отец и его двое подельников прячут украденные древние монеты, и перепрятал их. Вернет он их только при одном условии - если отец проведет с ним неделю, сводит на бейсбол, в музей, в Диснейленд и т.д. За ними тем временем следит женщина, агент полиции. Получилось так, что она познакомилась с папочкой и сынком и они подружились. Забавная, добрая комедия, сделанная в духе "Один дома". (c) Иванов М.
За дорожку спасибо Parabellumm
Качество видео: DVDRip Источник
Формат видео: AVI
Видео: 720x384 (1.88:1), 23.976 fps, XviD build 47 ~1728 kbps avg, 0.26 bit/pixel
Аудио: 48 kHz, AC3 Dolby Digital, 2/0 (L,R) ch, ~192 kbps

MediaInfo

General
Complete name : C:\Users\Александр\Desktop\Кино\Как справиться с отцом.avi
Format : AVI
Format/Info : Audio Video Interleave
File size : 1.47 GiB
Duration : 1h 48mn
Overall bit rate : 1 930 Kbps
Writing application : VirtualDubMod 1.5.10.2 (build 2540/release)
Writing library : VirtualDubMod build 2540/release
Video
ID : 0
Format : MPEG-4 Visual
Format profile : Advanced Simple@L5
Format settings, BVOP : 1
Format settings, QPel : No
Format settings, GMC : No warppoints
Format settings, Matrix : Custom
Codec ID : XVID
Codec ID/Hint : XviD
Duration : 1h 48mn
Bit rate : 1 728 Kbps
Width : 720 pixels
Height : 384 pixels
Display aspect ratio : 1.85:1
Frame rate : 23.976 fps
Original frame rate : 25.000 fps
Color space : YUV
Chroma subsampling : 4:2:0
Bit depth : 8 bits
Scan type : Progressive
Compression mode : Lossy
Bits/(Pixel*Frame) : 0.261
Stream size : 1.31 GiB (90%)
Writing library : XviD 1.2.0.dev47 (UTC 2006-11-01)
Audio
ID : 1
Format : AC-3
Format/Info : Audio Coding 3
Mode extension : CM (complete main)
Format settings, Endianness : Big
Codec ID : 2000
Duration : 1h 48mn
Bit rate mode : Constant
Bit rate : 192 Kbps
Channel(s) : 2 channels
Channel positions : Front: L R
Sampling rate : 48.0 KHz
Bit depth : 16 bits
Compression mode : Lossy
Delay relative to video : 19ms
Stream size : 149 MiB (10%)
Alignment : Split accross interleaves
Interleave, duration : 42 ms (1.00 video frame)
Interleave, preload duration : 500 ms

Скриншоты

Показать сообщения:    

Текущее время: Сегодня 15:20

Часовой пояс: GMT



Вы не можете начинать темы
Вы не можете отвечать на сообщения
Вы не можете редактировать свои сообщения
Вы не можете удалять свои сообщения
Вы не можете голосовать в опросах
Вы не можете прикреплять файлы к сообщениям
Вы не можете скачивать файлы