Важное объявление!
У Нас Все раздачи мультитрекерные, при нуле пиров в релизах, можете смело вставать на закачку!
 
Автор Сообщение

HUNTER

Стаж:
4 года 4 месяца
Сообщений:
56808

Репутация: 101

[+] [-]
Вне форума [Профиль] [ЛС]

Как приручить дракона 2
How to Train Your Dragon 2
Страна: США
Жанр: фэнтези, комедия, приключения
Продолжительность: 01:41:55
Год выпуска: 2014
Перевод 1: Профессиональный дублированный (русский)
Перевод 2: Профессиональный дублированный (украинский)
Оригинальная аудиодорожка: английская
Русские субтитры: есть-Режиссёр: Дин ДеБлуа / Dean DeBlois
Роли озвучивали: Джей Барушель, Кейт Бланшетт, Джерард Батлер, Крэйг Фергюсон, Америка Феррера, Джона Хилл, Кристофер Минц-Плассе, ТиДжей Миллер, Кристен Уиг, Джимон Хонсу.
-Описание: С момента примирения викингов и драконов прошло пять лет. Пока Астрид, Сморкала и остальные ребята проводят время, соревнуясь друг с другом в популярных на острове драконьих гонках, Иккинг и Беззубик путешествуют по небу, составляя карту неизвестных мест. Когда одно из их приключений приводит к открытию тайной ледяной пещеры, которая является домом для сотен ранее невиданных диких драконов и таинственного драконьего всадника, два друга оказываются в центре битвы за защиту мира.-Качество: BDRemux 1080p
Формат: MKV
Видео: AVC, 1920x1080, 23293 kbps, 23,976 fps
Аудио RUS: DTS, 768 kbps, 48000 Hz, 5.1 ch
Аудио UKR: AC3, 448 kbps, 48000 Hz, 5.1 ch
Аудио ENG: DTS-HD MA, 5237 kbps, 48000 Hz, 7.1 ch (DTS Core: 5.1-ES / 48 kHz / 1509 kbps / 24-bit)
Субтитры: Rus, Ukr, Eng.

Сэмпл

Подробные технические данные

Формат : Matroska
Версия формата : Version 4 / Version 2
Размер файла : 21.2 GiB
Продолжительность : 1h 41mn
Режим общего битрейта : Variable
Общий поток : 29.7 Mbps
Дата кодирования : UTC 2014-11-01 17:51:21
Программа кодирования : mkvmerge v7.1.0 ('Good Love') 32bit built on Jul 27 2014 12:59:18
Библиотека кодирования : libebml v1.3.0 + libmatroska v1.4.1
Video
Идентификатор : 1
Формат : AVC
Формат/Информация : Advanced Video Codec
Профиль формата : High@L4.1
Параметр CABAC формата : Yes
Параметр ReFrames формата : 4 frames
Идентификатор кодека : V_MPEG4/ISO/AVC
Продолжительность : 1h 41mn
Вид битрейта : Variable
Максимальный битрейт : 32.2 Mbps
Ширина : 1 920 pixels
Высота : 1 080 pixels
Соотношение сторон : 16:9
Режим частоты кадров : Constant
Частота кадров : 23.976 fps
Цветовое пространство : YUV
Субдискретизация насыщенности : 4:2:0
Битовая глубина : 8 bits
Тип развёртки : Progressive
Default : Yes
Forced : No
Audio #1
Идентификатор : 2
Формат : DTS
Формат/Информация : Digital Theater Systems
Режим : 16
Параметр Endianness формата : Big
Идентификатор кодека : A_DTS
Продолжительность : 1h 41mn
Вид битрейта : Constant
Битрейт : 768 Kbps
Каналы : 6 channels
Расположение каналов : Front: L C R, Side: L R, LFE
Частота : 48.0 KHz
Битовая глубина : 24 bits
Метод сжатия : Lossy
Размер потока : 560 MiB (3%)
Язык : Russian
Default : Yes
Forced : No
Audio #2
Идентификатор : 3
Формат : AC-3
Формат/Информация : Audio Coding 3
Расширение режима : CM (complete main)
Параметр Endianness формата : Big
Идентификатор кодека : A_AC3
Продолжительность : 1h 41mn
Вид битрейта : Constant
Битрейт : 448 Kbps
Каналы : 6 channels
Расположение каналов : Front: L C R, Side: L R, LFE
Частота : 48.0 KHz
Битовая глубина : 16 bits
Метод сжатия : Lossy
Размер потока : 327 MiB (2%)
Язык : Ukrainian
Default : No
Forced : No
Audio #3
Идентификатор : 4
Формат : DTS
Формат/Информация : Digital Theater Systems
Профиль формата : MA / Core
Режим : 16
Параметр Endianness формата : Big
Идентификатор кодека : A_DTS
Продолжительность : 1h 41mn
Вид битрейта : Variable
Битрейт : Unknown / 1 509 Kbps
Каналы : 8 channels / 6 channels
Расположение каналов : Front: L C R, Side: L R, Back: L R, LFE / Front: L C R, Side: L R, LFE
Частота : 48.0 KHz
Битовая глубина : 24 bits
Метод сжатия : Lossless / Lossy
Язык : English
Default : No
Forced : No
Text #1
Идентификатор : 5
Формат : UTF-8
Идентификатор кодека : S_TEXT/UTF8
Идентификатор кодека/Информация : UTF-8 Plain Text
Язык : Russian
Default : No
Forced : No
Text #2
Идентификатор : 6
Формат : UTF-8
Идентификатор кодека : S_TEXT/UTF8
Идентификатор кодека/Информация : UTF-8 Plain Text
Язык : Ukrainian
Default : No
Forced : No
Text #3
Идентификатор : 7
Формат : UTF-8
Идентификатор кодека : S_TEXT/UTF8
Идентификатор кодека/Информация : UTF-8 Plain Text
Язык : English
Default : No
Forced : No
Menu
00:00:00.000 : en:Chapter 1
00:03:27.999 : en:Chapter 2
00:05:20.695 : en:Chapter 3
00:07:46.007 : en:Chapter 4
00:10:16.032 : en:Chapter 5
00:13:16.337 : en:Chapter 6
00:16:59.060 : en:Chapter 7
00:20:01.700 : en:Chapter 8
00:23:43.255 : en:Chapter 9
00:27:14.466 : en:Chapter 10
00:29:21.468 : en:Chapter 11
00:33:41.937 : en:Chapter 12
00:37:05.473 : en:Chapter 13
00:39:06.970 : en:Chapter 14
00:40:59.165 : en:Chapter 15
00:45:03.993 : en:Chapter 16
00:47:16.625 : en:Chapter 17
00:51:51.525 : en:Chapter 18
00:54:35.731 : en:Chapter 19
00:56:15.998 : en:Chapter 20
01:00:33.171 : en:Chapter 21
01:04:28.782 : en:Chapter 22
01:06:34.949 : en:Chapter 23
01:09:44.138 : en:Chapter 24
01:14:01.854 : en:Chapter 25
01:18:35.127 : en:Chapter 26
01:21:07.154 : en:Chapter 27
01:22:55.053 : en:Chapter 28
01:24:30.065 : en:Chapter 29
01:28:04.654 : en:Chapter 30
01:31:03.500 : en:Chapter 31
01:32:21.995 : en:Chapter 32

Скриншоты


_________________
Показать сообщения:    

Текущее время: Сегодня 10:13

Часовой пояс: GMT



Вы не можете начинать темы
Вы не можете отвечать на сообщения
Вы не можете редактировать свои сообщения
Вы не можете удалять свои сообщения
Вы не можете голосовать в опросах
Вы не можете прикреплять файлы к сообщениям
Вы не можете скачивать файлы