Важное объявление!
У Нас Все раздачи мультитрекерные, при нуле пиров в релизах, можете смело вставать на закачку!
 
Автор Сообщение

HUNTER

Стаж:
4 года 4 месяца
Сообщений:
56755

Репутация: 101

[+] [-]
Вне форума [Профиль] [ЛС]

Как приручить дракона 2 / How to Train Your Dragon 2
Страна: США
Студия: DreamWorks Animation, Mad Hatter Entertainment
Жанр: Мультфильм
Год выпуска: 2014
Продолжительность: 01:41:55
Перевод: Профессиональный (дублированный)
Cубтитры: Russian, Ukrainian, English
Оригинальная аудиодорожка: английский
Режиссер: Дин ДеБлуа / Dean DeBlois
В ролях: Джей Барушель, Кейт Бланшетт, Джерард Батлер, Крэйг Фергюсон, Америка Феррера, Джона Хилл, Кристофер Минц-Плассе, ТиДжей Миллер, Кристен Уиг, Джимон Хонсу
Описание: С момента примирения викингов и драконов прошло пять лет. Пока Астрид, Сморкала и остальные ребята проводят время, соревнуясь друг с другом в популярных на острове драконьих гонках, Иккинг и Беззубик путешествуют по небу, составляя карту неизвестных мест. Когда одно из их приключений приводит к открытию тайной ледяной пещеры, которая является домом для сотен ранее невиданных диких драконов и таинственного драконьего всадника, два друга оказываются в центре битвы за защиту мира.

Тип релиза: BDRip 720p
Контейнер: MKV
Видео: AVC, 1280x544 (2.35:1), 23.976 fps, 7 104 Kbps (0.426 bit/pixel)
Аудио: Russian: 48 kHz, DTS, 3/2 (L,C,R,l,r) + LFE ch, ~768.00 kbps avg
Аудио 2: Ukrainian: 48 kHz, AC3, 3/2 (L,C,R,l,r) + LFE ch, ~448.00 kbps avg
Аудио 3: English: 48 kHz, DTS, 3/2 (L,C,R,l,r) + LFE ch, ~1509.00 kbps avg
Формат субтитров: softsub (SRT)

MediaInfo

Format : Matroska
Format version : Version 2
File size : 7.11 GiB
Duration : 1h 41mn
Overall bit rate : 9 987 Kbps
Movie name : How to Train Your Dragon 2 (2014) - Release for HDCLUB
Encoded date : UTC 2014-10-23 12:23:03
Writing application : mkvmerge v5.7.0 ('The Whirlwind') built on Jul 8 2012 20:08:51
Writing library : libebml v1.2.3 + libmatroska v1.3.0
Video
ID : 1
Format : AVC
Format/Info : Advanced Video Codec
Format profile : High@L4.1
Format settings, CABAC : Yes
Format settings, ReFrames : 12 frames
Codec ID : V_MPEG4/ISO/AVC
Duration : 1h 41mn
Bit rate : 7 063 Kbps
Width : 1 280 pixels
Height : 544 pixels
Display aspect ratio : 2.35:1
Frame rate mode : Constant
Frame rate : 23.976 fps
Color space : YUV
Chroma subsampling : 4:2:0
Bit depth : 8 bits
Scan type : Progressive
Bits/(Pixel*Frame) : 0.423
Stream size : 5.03 GiB (71%)
Writing library : x264 core 142 r2479kMod dd79a61
Encoding settings : cabac=1 / ref=12 / deblock=1:-3:-3 / analyse=0x3:0x133 / me=umh / subme=10 / psy=1 / fade_compensate=0.00 / psy_rd=0.65:0.00 / mixed_ref=1 / me_range=24 / chroma_me=1 / trellis=2 / 8x8dct=1 / cqm=0 / deadzone=21,11 / fast_pskip=0 / chroma_qp_offset=-2 / threads=18 / lookahead_threads=3 / sliced_threads=0 / nr=0 / decimate=0 / interlaced=0 / bluray_compat=0 / constrained_intra=0 / fgo=0 / bframes=9 / b_pyramid=2 / b_adapt=2 / b_bias=0 / direct=3 / weightb=1 / open_gop=0 / weightp=2 / keyint=250 / keyint_min=23 / scenecut=40 / intra_refresh=0 / rc=crf / mbtree=0 / crf=16.0000 / qcomp=0.75 / qpmin=0 / qpmax=69 / qpstep=4 / ip_ratio=1.20 / pb_ratio=1.10 / aq=1:1.05 / zones=698,1450,crf=13.0/2082,2161,crf=13.0/25706,30872,crf=13.0/36550,37425,crf=13.0/37568,37965,crf=13.0/39188,41530,crf=13.0/41823,41948,crf=13.0/43232,46886,crf=13.0/54227,56358,crf=13.0/77845,78012,crf=13.0/80363,80942,crf=13.0/82433,82871,crf=13.0/102207,102265,crf=13.0/107329,109359,crf=13.0/110396,110736,crf=13.0/113424,116130,crf=13.0/116996,118723,crf=13.0
Language : English
Default : Yes
Forced : No
Audio #1
ID : 2
Format : DTS
Format/Info : Digital Theater Systems
Mode : 16
Format settings, Endianness : Big
Codec ID : A_DTS
Duration : 1h 41mn
Bit rate mode : Constant
Bit rate : 768 Kbps
Channel(s) : 6 channels
Channel positions : Front: L C R, Side: L R, LFE
Sampling rate : 48.0 KHz
Bit depth : 24 bits
Compression mode : Lossy
Stream size : 560 MiB (8%)
Language : Russian
Default : Yes
Forced : No
Audio #2
ID : 3
Format : AC-3
Format/Info : Audio Coding 3
Mode extension : CM (complete main)
Format settings, Endianness : Big
Codec ID : A_AC3
Duration : 1h 41mn
Bit rate mode : Constant
Bit rate : 448 Kbps
Channel(s) : 6 channels
Channel positions : Front: L C R, Side: L R, LFE
Sampling rate : 48.0 KHz
Bit depth : 16 bits
Compression mode : Lossy
Stream size : 327 MiB (4%)
Language : Ukrainian
Default : No
Forced : No
Audio #3
ID : 4
Format : DTS
Format/Info : Digital Theater Systems
Format profile : ES
Mode : 16
Format settings, Endianness : Big
Codec ID : A_DTS
Duration : 1h 41mn
Bit rate mode : Constant
Bit rate : 1 509 Kbps
Channel(s) : 6 channels
Channel positions : Front: L C R, Side: L R, LFE
Sampling rate : 48.0 KHz
Bit depth : 24 bits
Compression mode : Lossy
Stream size : 1.07 GiB (15%)
Language : English
Default : No
Forced : No
Text #1
ID : 5
Format : UTF-8
Codec ID : S_TEXT/UTF8
Codec ID/Info : UTF-8 Plain Text
Language : Russian
Default : No
Forced : No
Text #2
ID : 6
Format : UTF-8
Codec ID : S_TEXT/UTF8
Codec ID/Info : UTF-8 Plain Text
Language : Ukrainian
Default : No
Forced : No
Text #3
ID : 7
Format : UTF-8
Codec ID : S_TEXT/UTF8
Codec ID/Info : UTF-8 Plain Text
Language : English
Default : No
Forced : No
Menu
00:00:00.000 : en:Chapter 1
00:03:27.999 : en:Chapter 2
00:05:20.695 : en:Chapter 3
00:07:46.007 : en:Chapter 4
00:10:16.032 : en:Chapter 5
00:13:16.337 : en:Chapter 6
00:16:59.060 : en:Chapter 7
00:20:01.700 : en:Chapter 8
00:23:43.255 : en:Chapter 9
00:27:14.466 : en:Chapter 10
00:29:21.468 : en:Chapter 11
00:33:41.937 : en:Chapter 12
00:37:05.473 : en:Chapter 13
00:39:06.970 : en:Chapter 14
00:40:59.165 : en:Chapter 15
00:45:03.993 : en:Chapter 16
00:47:16.625 : en:Chapter 17
00:51:51.525 : en:Chapter 18
00:54:35.731 : en:Chapter 19
00:56:15.998 : en:Chapter 20
01:00:33.171 : en:Chapter 21
01:04:28.782 : en:Chapter 22
01:06:34.949 : en:Chapter 23
01:09:44.138 : en:Chapter 24
01:14:01.854 : en:Chapter 25
01:18:35.127 : en:Chapter 26
01:21:07.154 : en:Chapter 27
01:22:55.053 : en:Chapter 28
01:24:30.065 : en:Chapter 29
01:28:04.654 : en:Chapter 30
01:31:03.500 : en:Chapter 31
01:32:21.995 : en:Chapter 32

Скриншоты


_________________
Показать сообщения:    

Текущее время: Сегодня 10:24

Часовой пояс: GMT



Вы не можете начинать темы
Вы не можете отвечать на сообщения
Вы не можете редактировать свои сообщения
Вы не можете удалять свои сообщения
Вы не можете голосовать в опросах
Вы не можете прикреплять файлы к сообщениям
Вы не можете скачивать файлы