Важное объявление!
У Нас Все раздачи мультитрекерные, при нуле пиров в релизах, можете смело вставать на закачку!
 
Автор Сообщение

HUNTER

Стаж:
4 года 4 месяца
Сообщений:
56798

Репутация: 101

[+] [-]
Вне форума [Профиль] [ЛС]

Как приручить дракона 2
How to Train Your Dragon 2
Страна: США
Жанр: мультфильм, фэнтези, комедия, приключения, семейный
Продолжительность: 01:41:55
Год выпуска: 2014-Перевод : Профессиональный (дублированный)
Русские субтитры: есть
Режиссёр: Дин ДеБлуа / Dean DeBlois-Роли озвучивали: Джей Барушель, Кейт Бланшетт, Джерард Батлер, Крэйг Фергюсон, Америка Феррера, Джона Хилл, Кристофер Минц-Плассе, ТиДжей Миллер, Кристен Уиг, Джимон Хонсу...-Описание: С момента примирения викингов и драконов прошло пять лет. Пока Астрид, Сморкала и остальные ребята проводят время, соревнуясь друг с другом в популярных на острове драконьих гонках, Иккинг и Беззубик путешествуют по небу, составляя карту неизвестных мест. Когда одно из их приключений приводит к открытию тайной ледяной пещеры, которая является домом для сотен ранее невиданных диких драконов и таинственного драконьего всадника, два друга оказываются в центре битвы за защиту мира.- -Качество: BDRip
Формат: AVI
Видео: 720x304 (2.35:1), 23.976 fps, XviD 66 ~2 158 kbps avg, 0.41 bit/pixel
Аудио: 48 kHz, AC3 Dolby Digital, 3/2 (L,C,R,l,r) + LFE ch, ~448 kbps avg |DUB|
Аудио: 48 kHz, AC3 Dolby Digital, 3/2 (L,C,R,l,r) + LFE ch, ~448 kbps avg |ENG~Original|
Субтитры: Russian, English [srt]

MI


General
Complete name : D:\incarcare\rip gata\Как.приручить.дракона.2.BDRip[dragomire]_rutracker.org\Как.приручить.дракона.2.BDRip[dragomire]_rutracker.org.avi
Format : AVI
Format/Info : Audio Video Interleave
Format profile : OpenDML
File size : 2.19 GiB
Duration : 1h 41mn
Overall bit rate : 3 071 Kbps
Writing application : VirtualDubMod 1.5.10.2 (build 2540/release)
Writing library : VirtualDubMod build 2540/release
Video
ID : 0
Format : MPEG-4 Visual
Format profile : Advanced Simple@L5
Format settings, BVOP : 1
Format settings, QPel : No
Format settings, GMC : No warppoints
Format settings, Matrix : Custom
Codec ID : XVID
Codec ID/Hint : XviD
Duration : 1h 41mn
Bit rate : 2 158 Kbps
Width : 720 pixels
Height : 304 pixels
Display aspect ratio : 2.35:1
Frame rate : 23.976 fps
Color space : YUV
Chroma subsampling : 4:2:0
Bit depth : 8 bits
Scan type : Progressive
Compression mode : Lossy
Bits/(Pixel*Frame) : 0.411
Stream size : 1.54 GiB (70%)
Writing library : XviD 66
Audio #1
ID : 1
Format : AC-3
Format/Info : Audio Coding 3
Mode extension : CM (complete main)
Format settings, Endianness : Big
Codec ID : 2000
Duration : 1h 41mn
Bit rate mode : Constant
Bit rate : 448 Kbps
Channel(s) : 6 channels
Channel positions : Front: L C R, Side: L R, LFE
Sampling rate : 48.0 KHz
Compression mode : Lossy
Stream size : 327 MiB (15%)
Alignment : Split accross interleaves
Interleave, duration : 42 ms (1.00 video frame)
Interleave, preload duratio : 500 ms
Audio #2
ID : 2
Format : AC-3
Format/Info : Audio Coding 3
Mode extension : CM (complete main)
Format settings, Endianness : Big
Codec ID : 2000
Duration : 1h 41mn
Bit rate mode : Constant
Bit rate : 448 Kbps
Channel(s) : 6 channels
Channel positions : Front: L C R, Side: L R, LFE
Sampling rate : 48.0 KHz
Compression mode : Lossy
Stream size : 327 MiB (15%)
Alignment : Split accross interleaves
Interleave, duration : 42 ms (1.00 video frame)
Interleave, preload duratio : 500 ms

Скриншоты


_________________
Показать сообщения:    

Текущее время: Сегодня 05:21

Часовой пояс: GMT



Вы не можете начинать темы
Вы не можете отвечать на сообщения
Вы не можете редактировать свои сообщения
Вы не можете удалять свои сообщения
Вы не можете голосовать в опросах
Вы не можете прикреплять файлы к сообщениям
Вы не можете скачивать файлы