Важное объявление!
У Нас Все раздачи мультитрекерные, при нуле пиров в релизах, можете смело вставать на закачку!
 
Автор Сообщение

HUNTER

Стаж:
4 года 4 месяца
Сообщений:
56848

Репутация: 101

[+] [-]
Вне форума [Профиль] [ЛС]

Как построить средневековый замок. / BBC - Secrets of the Castle: with Ruth, Peter and Tom
Дата/Год выпуска: 2014
Страна: Великобритания
Жанр: Документальный сериал
Продолжительность: 5х59 минут
Перевод: Студийный (одноголосый закадровый)
Режиссер: Stuart Elliott / Стюарт Эллиотт
Телеканал: Viasat History
Описание: Создатели документальных сериалов «Викторианская ферма» и «Эдвардианская ферма» историк Рут Гудман и археологи Питер Джинн и Том Пинфолд на этот раз отправляются во Францию, где они примут участие в одном из самых амбициозных проектов — постройке настоящего средневекового замка. Строительство замка было начато в окрестностях города Треньи в Бургундии в 1997 году, и осуществляется в соответствии с технологиями XIII века. Рут, Питер и Том решают присоединиться к местным строителям и научиться методам, которые применялись при постройке замка в средневековые времена.
Сэмпл: https://www.sendspace.com/file/h9hmum
качество: HDTVRip
формат: AVI
Видео: Xvid 720x400 25fps 1499kbps
Аудио: MP3 48000Hz stereo 128kbps-2006, BBC, Рут Гудман и Co, "Рождественский пир эпохи Тюдоров" [59мин] TV-rip
2009, BBC, Рут Гудман и Co, "Викторианская ферма" [6x58мин] DVD-rip.
2009, BBC, Рут Гудман и Co, "Викторианская ферма" Рождество" [3x59мин] SAT-rip
2010, BBC, Рут Гудман и Co, "Викторианская аптека" [4x60мин] DVD-rip
2011, BBC, Рут Гудман и Co, "Эдвардианская ферма" [12x60мин] DVD-rip
2012, BBC, Рут Гудман и Co, "Ферма в годы войны" [8х59мин] DVDRip
2013, BBC, Рут Гудман и Co, "Ферма во времена Тюдоров" [6ч59мин] HDTVRip

Список выпусков/серий

1. Археологи Питер и Том сразу же начинают обучаться навыкам средневековых каменщиков, и пробуют построить винтовую лестницу. А Рут в это время учится плести циновку.
2. В этой серии Рут, Том и Питер учатся защищать замок. Они приобретают навыки боевого искусства, а также узнают, как строились оборонительные сооружения замка.
3. Рут, Питер и Том узнают о том, каким образом оформлялся интерьер замка. Они учатся штукатурить и наносить побелку на внутренние стены сторожевой башни.
4. Секреты гильдий мастеров по строительству замков
5. Как построить окна для церкви

MediaInfo

GeneralComplete name : C:\Videos\BBC Secrets of the Castle (2014)\BBC.Secrets of the Castle.1of5.aviFormat : AVIFormat/Info : Audio Video InterleaveFile size : 691 MiBDuration : 58mn 58sOverall bit rate : 1 638 KbpsWriting application : VirtualDubMod 1.5.10.3 | www.virtualdub-fr.org || (build 2550/release)Writing library : VirtualDubMod build 2550/release
VideoID : 0Format : MPEG-4 VisualFormat profile : Advanced Simple@L5Format settings, BVOP : 2Format settings, QPel : NoFormat settings, GMC : No warppointsFormat settings, Matrix : Default (MPEG)Codec ID : XVIDCodec ID/Hint : XviDDuration : 58mn 58sBit rate : 1 500 KbpsWidth : 720 pixelsHeight : 400 pixelsDisplay aspect ratio : 16:9Frame rate : 25.000 fpsColor space : YUVChroma subsampling : 4:2:0Bit depth : 8 bitsScan type : ProgressiveCompression mode : LossyBits/(Pixel*Frame) : 0.208Stream size : 633 MiB (92%)Writing library : XviD 1.2.1 (UTC 2008-12-04)
AudioID : 1Format : MPEG AudioFormat version : Version 1Format profile : Layer 3Codec ID : 55Codec ID/Hint : MP3Duration : 58mn 57sBit rate mode : ConstantBit rate : 128 KbpsChannel(s) : 2 channelsSampling rate : 48.0 KHzCompression mode : LossyStream size : 54.0 MiB (8%)Alignment : Aligned on interleavesInterleave, duration : 40 ms (1.00 video frame)Interleave, preload duratio : 504 msWriting library : LAME3.99rEncoding settings : -m s -V 4 -q 2 -lowpass 17 -b 128

Скриншоты

Внимание! Раздача ведётся путём добавления новых выпусков

Внимание! Раздача ведётся путём добавления новых выпусков; при каждом добавлении создаётся новый торрент. Чтобы начать докачку нового выпуска, пользователям необходимо сделать следующее:
(1) остановить скачивание,
(2) удалить старый торрент у себя из клиента (старые серии удалять не надо),
(3) скачать новый торрент и запустить его у себя в клиенте вместо старого, при этом указать клиенту путь в старую папку куда и должно происходить скачивание новых выпусков.
Ваш клиент при этом должен произвести хеширование (проверку) старой папки (если не производит сам - помогите ему сделать это). В результате он будет докачивать только те выпуски, которых у Вас ещё нет. Старые выпуски при этом не удаляются, а продолжают раздаваться!
Eсли Вы уже удалили старые выпуски, то предотвратить их повторную закачку можно, сняв галочки в соответствующих местах при запуске нового торрента. По возможности, желательно не удалять старые выпуски как можно дольше, чтобы релизёр не только продолжал раздавать старые выпуски, но и смог сконцентрироваться на новых.

_________________
Показать сообщения:    

Текущее время: Сегодня 07:18

Часовой пояс: GMT



Вы не можете начинать темы
Вы не можете отвечать на сообщения
Вы не можете редактировать свои сообщения
Вы не можете удалять свои сообщения
Вы не можете голосовать в опросах
Вы не можете прикреплять файлы к сообщениям
Вы не можете скачивать файлы
Наши партнеры: интернет магазин Ивановского трикотажа textilla.ru