Важное объявление!
У Нас Все раздачи мультитрекерные, при нуле пиров в релизах, можете смело вставать на закачку!
 
Автор Сообщение

HUNTER

Стаж:
4 года 4 месяца
Сообщений:
56790

Репутация: 101

[+] [-]
Вне форума [Профиль] [ЛС]

Как настроить wifi за 30 минут? Подключение wifi роутера-

Год выпуска: 2012
Страна: Россия
Сайт производителя: http://wp-voprosov.net
Тематика: Компьютерные сети и безопасность
Тип материала: Видеоурок-Продолжительность: 00:46:58
Автор: Александр Карташев-Язык: Русский
Субтитры: нет-Описание: Статью про настройку wifi роутера и создание домашней беспроводной сети на блоге wp-voprosov.net за несколько месяцев уже прочитало более 89 тысяч человек. Теперь же для вас доступен также бесплатный видеокурс "Подключение wifi роутера", созданный на основе нескольких лучших статей блога-Качество: HDRip
Формат: mp4
Видео кодек: Advanced Video Codec
Аудио кодек: Advanced Audio Codec
Видео: MPEG4 Video (H264) 1280x720 15fps 95kbps
Аудио: AAC 44100Hz stereo 53kbps-

Доп. информация

Всего за несколько уроков и полчаса потраченного времени у вас в доме будет настоящий wifi, к которому сможет подсоединиться любой член семьи с любого устройства с поддержкой wifi, будь то мобильник, планшет или принтер!

Содержание

В нем подробно рассматриваются такие вопросы:
Что такое wifi?
Что такое роутер и как его выбрать?
Как настроить роутер, подключиться к интернету и создать домашнюю сеть?
Как защитить wifi сеть от постороннего подключения?
Как присоединиться к этой сети с другого компьютера?
Как проверить скорость соединения?

MediaInfo

Код: copyText_writeLink('this.parentNode.parentNode.nextSibling.nextSibling'); General
Complete name : E:\Обучение\AutoPlay\Docs\Lesson-1.mp4
Format : MPEG-4
Format profile : Base Media / Version 2
Codec ID : mp42
File size : 5.08 MiB
Duration : 4mn 41s
Overall bit rate : 152 Kbps
Encoded date : UTC 2012-11-19 09:26:53
Tagged date : UTC 2012-11-19 09:26:53
Video
ID : 1
Format : AVC
Format/Info : Advanced Video Codec
Format profile : High@L3.1
Format settings, CABAC : Yes
Format settings, ReFrames : 4 frames
Codec ID : avc1
Codec ID/Info : Advanced Video Coding
Duration : 4mn 41s
Source duration : 4mn 41s
Bit rate mode : Variable
Bit rate : 83.1 Kbps
Width : 1 280 pixels
Height : 720 pixels
Display aspect ratio : 16:9
Frame rate mode : Constant
Frame rate : 15.000 fps
Color space : YUV
Chroma subsampling : 4:2:0
Bit depth : 8 bits
Scan type : Progressive
Bits/(Pixel*Frame) : 0.006
Stream size : 2.79 MiB (55%)
Source stream size : 3.21 MiB (63%)
Language : English
Encoded date : UTC 2012-11-19 09:26:53
Tagged date : UTC 2012-11-19 09:26:53
mdhd_Duration : 281202
Color primaries : BT.709
Transfer characteristics : BT.709
Matrix coefficients : BT.709
Audio
ID : 2
Format : AAC
Format/Info : Advanced Audio Codec
Format profile : LC
Codec ID : 40
Duration : 4mn 41s
Source duration : 4mn 41s
Bit rate mode : Constant
Bit rate : 53.5 Kbps
Channel(s) : 2 channels
Channel positions : Front: L R
Sampling rate : 44.1 KHz
Compression mode : Lossy
Stream size : 1.80 MiB (35%)
Source stream size : 1.80 MiB (35%)
Language : English
Encoded date : UTC 2012-11-19 09:26:53
Tagged date : UTC 2012-11-19 09:26:53
mdhd_Duration : 281256
- -

_________________
Показать сообщения:    

Текущее время: Сегодня 11:55

Часовой пояс: GMT



Вы не можете начинать темы
Вы не можете отвечать на сообщения
Вы не можете редактировать свои сообщения
Вы не можете удалять свои сообщения
Вы не можете голосовать в опросах
Вы не можете прикреплять файлы к сообщениям
Вы не можете скачивать файлы