Важное объявление!
У Нас Все раздачи мультитрекерные, при нуле пиров в релизах, можете смело вставать на закачку!
 
Автор Сообщение

HUNTER

Стаж:
4 года 4 месяца
Сообщений:
56733

Репутация: 101

[+] [-]
Вне форума [Профиль] [ЛС]

Как найти свое Предназначение и Миссию? Автор: Дмитрий Колесов.
Тематика: Психология
Тип раздаваемого материала: Видеоурок
Продолжительность: 2:05:26
Год выпуска: 2012
Язык: Русский
Перевод: Не требуется
Описание: Как найти свое Предназначение и Миссию? Авторский вебинар Дмитрия Колесова, посвященный поиску смысла и миссии жизни. Практические упражнения.
P.S. Это запись Первого дня. Если будет интересно, выложу и Второй день.
Формат: MOV
Видео: AVC, 640x358, 15 fps, 30 kbps
Аудио: AAC, 44.1 kHz, 1 ch, 64 kbps

Скриншоты

MediaInfo

Общее
Полное имя : I:\Mission_day1.mov
Формат : MPEG-4
Профиль формата : QuickTime
Идентификатор кодека : qt
Размер файла : 86,1 Мбайт
Продолжительность : 2 ч. 5 м.
Общий поток : 96,0 Кбит/сек
Дата кодирования : UTC 2012-08-14 19:23:38
Дата пометки : UTC 2012-08-14 19:24:00
Библиотека кодирования : Apple QuickTime
Видео
Идентификатор : 2
Формат : AVC
Формат/Информация : Advanced Video Codec
Профиль формата : Main@L3.1
Параметр CABAC формата : Нет
Параметр ReFrames формата : 2 кадра
Параметр GOP формата : M=2, N=120
Идентификатор кодека : avc1
Идентификатор кодека/Информация : Advanced Video Coding
Продолжительность : 2 ч. 5 м.
Битрейт : 29,4 Кбит/сек
Ширина : 640 пикселей
Высота : 358 пикселей
Соотношение сторон : 16:9
Режим частоты кадров : Постоянный
Частота кадров : 15,000 кадров/сек
Цветовое пространство : YUV
Субдискретизация насыщенности : 4:2:0
Битовая глубина : 8 бит
Тип развёртки : Прогрессивная
Бит/(Пиксели*Кадры) : 0.009
Размер потока : 26,4 Мбайт (31%)
Заголовок : Обработчик видео Apple / Обработчик псевдонимов Apple
Язык : English
Дата кодирования : UTC 2012-08-14 19:07:26
Дата пометки : UTC 2012-08-14 19:24:00
Основные цвета : BT.601 NTSC
Характеристики трансфера : BT.709
Коэффициенты матрицы : BT.601
Аудио
Идентификатор : 1
Формат : AAC
Формат/Информация : Advanced Audio Codec
Профиль формата : LC
Идентификатор кодека : 40
Продолжительность : 2 ч. 5 м.
Продолжительность оригинала : 2 ч. 5 м.
Вид битрейта : Постоянный
Битрейт : 64,0 Кбит/сек
Каналы : 1 канал
Расположение каналов : Front: C
Частота : 44,1 КГц
Метод сжатия : С потерями
Размер потока : 56,4 Мбайт (65%)
Размер потока оригинала : 56,4 Мбайт (65%)
Заголовок : Обработчик звука Apple / Обработчик псевдонимов Apple
Язык : English
Дата кодирования : UTC 2012-08-14 19:07:26
Дата пометки : UTC 2012-08-14 19:24:00

_________________
Показать сообщения:    

Текущее время: Сегодня 18:36

Часовой пояс: GMT



Вы не можете начинать темы
Вы не можете отвечать на сообщения
Вы не можете редактировать свои сообщения
Вы не можете удалять свои сообщения
Вы не можете голосовать в опросах
Вы не можете прикреплять файлы к сообщениям
Вы не можете скачивать файлы