Важное объявление!
У Нас Все раздачи мультитрекерные, при нуле пиров в релизах, можете смело вставать на закачку!
 
Автор Сообщение

HUNTER

Стаж:
4 года 4 месяца
Сообщений:
56720

Репутация: 101

[+] [-]
Вне форума [Профиль] [ЛС]

Как зелена была моя долина / How Green Was My Valley-
Год выпуска: 1941
Страна: США
Жанр: драма, семейный
Продолжительность: 01:58:36
Перевод: Профессиональный (многоголосый, закадровый) Двадцатый Век Фокс СНГ
Оригинальная аудиодорожка: Английская
Cубтитры: Руские, английские, французские, греческие, голландские, норвежские, португальские, испанские, румынские-Режиссер: Джон Форд / John Ford
В ролях: Уолтер Пиджон, Морин О’Хара, Анна Ли, Дональд Крисп, Родди МакДауэлл, Джон Лодер, Сара Оллгуд, Бэрри Фицджералд, Патрик Ноулз, Мортон Лоури-Описание:
Угледобывающий район в Южном Уэльсе, тяжелый труд шахтеров, жизнь их семей увидены глазами Хью, младшего из шести детей семьи во главе с суровым отцом и любящей матерью.-За дорожку спасибо Тихиро.
| IMDb | Сэмпл-Качество: BDRip 720p (DON)
Контейнер: MKV
Видео: 958x720 (1.33:1), 23.976 fps, 12167 kbps
Аудио 1: Русский AC3 2.0, 48 kHz, 192 kbps
Аудио 2: Английский AC3 5.1, 48 kHz, 640 kbps
Аудио 3: Английский AAC 2.0, 48 kHz, 145 kbps — Комментарии
Формат субтитров: softsub (SRT)
СкриншотыMI
nfo
Info
RUNTIME.......: 1h 58mn
SIZE..........: 10.7 GiB
VIDEO CODEC...: x264, crf 16.3, L4.1
FRAMERATE.....: 23.976 fps
BITRATE.......: ~ 12167.45 kb/s
RESOLUTION....: 958x720
AUDIO ........: English 5.1ch AC-3 @ 640 Kbps
AUDIO 2 ......: English 2.0ch AAC (Commentary - Anna Lee Nathan and Film Historian Joseph McBride)
SUBTITLES.....: English,Spanish,French,Dutch,Greek,Norwegian,Portuguese,romanian
CHAPTERS/NAMED: Yes / No
SOURCE........: How Green Was My Valley 1941 1080p Blu-ray AVC DTS-HD MA 5.1-insinuendo (thanks!)
x264 info
profile High, level 4.1
x264 [info]: frame I:1034 Avg QP:16.65 size:143070
x264 [info]: frame P:31304 Avg QP:17.95 size: 94961
x264 [info]: frame B:138286 Avg QP:20.08 size: 55704
x264 [info]: consecutive B-frames: 0.8% 0.4% 1.3% 12.3% 18.6% 54.9% 9.2% 2.7%
x264 [info]: kb/s:12167.45
encoded 170624 frames, 2.96 fps, 12167.45 kb/s
General
Unique ID : 175866860120226355505896392350464650106 (0x844EB9A790AA7897B948FAE8BAF6AB7A)
Complete name : How.Green.Was.My.Valley.1941.720p.BluRay.x264-DON.mkv
Format : Matroska
Format version : Version 2
File size : 10.9 GiB
Duration : 1h 58mn
Overall bit rate : 13.1 Mbps
Movie name : How Green Was My Valley / Как зелена была моя долина (1941) – RuTracker
Encoded date : UTC 2014-06-05 15:19:21
Writing application : mkvmerge v6.1.0 ('Old Devil') built on Mar 2 2013 14:32:37
Writing library : libebml v1.3.0 + libmatroska v1.4.0
Attachment : Yes
Video
ID : 1
Format : AVC
Format/Info : Advanced Video Codec
Format profile : High@L4.1
Format settings, CABAC : Yes
Format settings, ReFrames : 12 frames
Codec ID : V_MPEG4/ISO/AVC
Duration : 1h 58mn
Width : 958 pixels
Height : 720 pixels
Display aspect ratio : 4:3
Frame rate mode : Constant
Frame rate : 23.976 fps
Color space : YUV
Chroma subsampling : 4:2:0
Bit depth : 8 bits
Scan type : Progressive
Title : How.Green.Was.My.Valley.1941.720p.BluRay.DD5.1.x264-DON
Writing library : x264 core 133 r2334 a3ac64b
Encoding settings : cabac=1 / ref=12 / deblock=1:-3:-3 / analyse=0x3:0x133 / me=tesa / subme=10 / psy=1 / psy_rd=1.10:0.00 / mixed_ref=1 / me_range=32 / chroma_me=1 / trellis=2 / 8x8dct=1 / cqm=0 / deadzone=21,11 / fast_pskip=0 / chroma_qp_offset=-2 / threads=12 / lookahead_threads=2 / sliced_threads=0 / nr=0 / decimate=1 / interlaced=0 / bluray_compat=0 / constrained_intra=0 / bframes=7 / b_pyramid=2 / b_adapt=2 / b_bias=0 / direct=3 / weightb=1 / open_gop=0 / weightp=2 / keyint=241 / keyint_min=23 / scenecut=40 / intra_refresh=0 / rc_lookahead=60 / rc=crf / mbtree=0 / crf=16.3 / qcomp=0.75 / qpmin=0 / qpmax=69 / qpstep=4 / vbv_maxrate=50000 / vbv_bufsize=62500 / crf_max=0.0 / nal_hrd=none / ip_ratio=1.40 / pb_ratio=1.30 / aq=1:0.70
Language : English
Default : Yes
Forced : No
Audio #1
ID : 2
Format : AC-3
Format/Info : Audio Coding 3
Mode extension : CM (complete main)
Format settings, Endianness : Big
Codec ID : A_AC3
Duration : 1h 58mn
Bit rate mode : Constant
Bit rate : 192 Kbps
Channel(s) : 2 channels
Channel positions : Front: L R
Sampling rate : 48.0 KHz
Bit depth : 16 bits
Compression mode : Lossy
Stream size : 163 MiB (1%)
Title : MVO – Двадцатый Век Фокс СНГ
Language : Russian
Default : Yes
Forced : No
Audio #2
ID : 3
Format : AC-3
Format/Info : Audio Coding 3
Mode extension : CM (complete main)
Format settings, Endianness : Big
Codec ID : A_AC3
Duration : 1h 58mn
Bit rate mode : Constant
Bit rate : 640 Kbps
Channel(s) : 6 channels
Channel positions : Front: L C R, Side: L R, LFE
Sampling rate : 48.0 KHz
Bit depth : 16 bits
Compression mode : Lossy
Stream size : 543 MiB (5%)
Title : Original
Language : English
Default : No
Forced : No
Audio #3
ID : 4
Format : AAC
Format/Info : Advanced Audio Codec
Format profile : LC
Codec ID : A_AAC
Duration : 1h 58mn
Channel(s) : 2 channels
Channel positions : Front: L R
Sampling rate : 48.0 KHz
Compression mode : Lossy
Delay relative to video : 9ms
Title : Commentary - Anna Lee Nathan and Film Historian Joseph McBride
Language : English
Default : No
Forced : No
Text #1
ID : 5
Format : UTF-8
Codec ID : S_TEXT/UTF8
Codec ID/Info : UTF-8 Plain Text
Title : R5
Language : Russian
Default : No
Forced : No
Text #2
ID : 6
Format : UTF-8
Codec ID : S_TEXT/UTF8
Codec ID/Info : UTF-8 Plain Text
Language : English
Default : No
Forced : No
Text #3
ID : 7
Format : UTF-8
Codec ID : S_TEXT/UTF8
Codec ID/Info : UTF-8 Plain Text
Language : French
Default : No
Forced : No
Text #4
ID : 8
Format : UTF-8
Codec ID : S_TEXT/UTF8
Codec ID/Info : UTF-8 Plain Text
Language : Greek
Default : No
Forced : No
Text #5
ID : 9
Format : UTF-8
Codec ID : S_TEXT/UTF8
Codec ID/Info : UTF-8 Plain Text
Language : Dutch
Default : No
Forced : No
Text #6
ID : 10
Format : UTF-8
Codec ID : S_TEXT/UTF8
Codec ID/Info : UTF-8 Plain Text
Language : Norwegian
Default : No
Forced : No
Text #7
ID : 11
Format : UTF-8
Codec ID : S_TEXT/UTF8
Codec ID/Info : UTF-8 Plain Text
Language : Portuguese
Default : No
Forced : No
Text #8
ID : 12
Format : UTF-8
Codec ID : S_TEXT/UTF8
Codec ID/Info : UTF-8 Plain Text
Language : rom
Default : No
Forced : No
Text #9
ID : 13
Format : UTF-8
Codec ID : S_TEXT/UTF8
Codec ID/Info : UTF-8 Plain Text
Language : Spanish
Default : No
Forced : No
Menu
00:00:00.000 : en:Chapter 01
00:01:03.480 : en:Chapter 02
00:11:48.958 : en:Chapter 03
00:16:51.427 : en:Chapter 04
00:32:38.581 : en:Chapter 05
00:42:22.540 : en:Chapter 06
00:56:46.403 : en:Chapter 07
01:06:30.403 : en:Chapter 08
01:22:38.787 : en:Chapter 09
01:32:57.196 : en:Chapter 10

_________________
Показать сообщения:    

Текущее время: Сегодня 06:53

Часовой пояс: GMT



Вы не можете начинать темы
Вы не можете отвечать на сообщения
Вы не можете редактировать свои сообщения
Вы не можете удалять свои сообщения
Вы не можете голосовать в опросах
Вы не можете прикреплять файлы к сообщениям
Вы не можете скачивать файлы