Важное объявление!
У Нас Все раздачи мультитрекерные, при нуле пиров в релизах, можете смело вставать на закачку!
 
Автор Сообщение

HUNTER

Стаж:
4 года 4 месяца
Сообщений:
56808

Репутация: 101

[+] [-]
Вне форума [Профиль] [ЛС]

Казаки: Сборник мультфильмов---
Год выхода: 1967-1987 (Полная реставрация изображения и звука. "Стеклянное" издание Крупного плана, выпущенное в 2011 году.)
Страна: СССР, Украина
Студия: Киевнаучфильм, Укрфильм
Жанр: Мультфильм, семейный
Продолжительность: 02:10:00
Режиссер: Владимир Дахно
В ролях: Эдуард Назаров--О фильме:
«Казаки» — серия мультипликационных фильмов, снятых в СССР на украинской киностудии «Киевнаучфильм» режиссёром Владимиром Дахно.
Главными героями серии являются три запорожских казака: верзила, коротышка и силач (по сценарию носят имена Грай, Око и Тур соответственно, но в самом сериале всегда безымянны. Верзила хитёр и рассудителен, Коротышка — бодр и воинственен (он таскает с собой огромную пушку-мортиру), Силач — застенчив и сентиментален. Они попадают в невероятные приключения, встречаясь с людьми разных стран и эпох, даже с богами и инопланетянами. В мультфильмах отсутствуют диалоги и какой-либо текст, за исключением иногда приводимого вступления «от автора» — действие происходит в виде интуитивно понятных сцен.
-- --Качество: DVDRip-AVC
Формат: mkv
Видео кодек: H.264
Аудио кодек: АС-3
Видео: MPEG-4 AVC, 720x536(4:3), 25.000 кадр/с, 1785-2229 Кбит/с, 0.185 Bits/(Pixel*Frame)
Аудио: АС-3, 48.0 KHz, 6 ch, 448 Кбит/с--

Список серий:

01. Как казаки кулеш варили, 1967 г. Серия, рассказывающий о похищении Коротышки и других казаков бусурманами-работорговцами (крымскими татарами). Верзила и Силач с приключениями проникают в цитадель неприятеля — ханский город Кафу — и освобождают друзей. [00:09:50]
02. Как казаки в футбол играли, 1970 г. Одна из самых известных серий показывает, как казаки путешествуют по Европе на запад, попадая из эпохи в эпоху и обыгрывая в футбол противников с различным стилем игры: немецких рыцарей XIV века, французских мушкетеров XVII века (своих современников) и английских джентльменов XIX века.[00:18:30]
03. Как казаки олимпийцами стали, 1978 г. События этой серии связаны с древнегреческой мифологией. Бог Зевс хочет остановить войны между греками и учреждает Олимпийские игры. Марс, бог войны, намерен сорвать их проведение. Но ему придется волей-неволей вступить в спортивное состязание с казаками, занявшими сторону олимпийцев. [00:17:41]
04. Как казаки невест выручали, 1973 г. Серия о морских приключениях казаков, гоняющихся за пиратами, которые похитили казачек. Пираты — как и казаки — способны плавать на своём корабле из эпохи в эпоху. Погоня проходит через колоритные локации: Древнюю Грецию, Древний Египет, Индию, и заканчивается на острове пиратов. [00:18:52]
05. Как казаки соль покупали, 1975 г. В этой серии казаки помогают чумакам довезти соль до базара, отбиваясь от степных разбойников под предводительством Злого Пана. Почти вся серия представляет собой энергичную погоню, в которой казаки уходят от разбойников.[00:09:21]
06. Как казаки мушкетерам помогали, 1979 г. Серия отсылает к роману Александра Дюма-ст. «Три мушкетёра»: казаки помогают французским мушкетёрам доставить портрет дочери турецкого султана голландскому принцу, чтобы тот мог на ней жениться. Принц (сын штатгальтера) — племянник Анны Австрийской, поэтому французский двор принимает в судьбе голландца самое деятельное участие. Коварный кардинал Ришелье хочет сорвать планы королевы и снаряжает погоню. [00:17:41]
07. Как казаки на свадьбе гуляли, 1984 г. Мистическая серия, рассказывающая о женитьбе Силача, отсылает к произведениям Гоголя. В поисках чоботов для своей возлюбленной казак попадает на шабаш к лесным чертям, которые хотят похитить его душу. Верные друзья хитроумно спасают казака. [00:19:37]
08. Как казаки инопланетян встречали, 1987 г. В этой серии казаки встречают инопланетян, карикатурно похожих на них самих (маленький, длинный и сильный). «Летающей тарелке» пришельцев для возвращения на родину требуется смазка. В поисках смазки казаки вместе с инопланетянами странствуют по Европе, защищают Болгарию от генуэзцев, изобретают водопровод в позднем (христианском) Риме и едва не попадают на костёр инквизиции в Испании. [00:17:24]

Mi

Код: copyText_writeLink('this.parentNode.parentNode.nextSibling.nextSibling');
C:мультикиKazaki.2011.x264.DVDRip.(AVC).mkv
General
Unique ID : 226708639022703318916077919080485659958 (0xAA8E7EE336C6F6F9AFD83EE1F522A536)
Complete name : C:мультикиKazaki.2011.x264.DVDRip.(AVC).by.Тorrent-Хzona.mkv
Format : Matroska
Format version : Version 2
File size : 2.04 GiB
Duration : 2h 10mn
Overall bit rate : 2 229 Kbps
Encoded date : UTC 2012-08-15 14:21:03
Writing application : mkvmerge v5.0.1 ('Es ist Sommer') built on Nov 6 2011 16:23:40
Writing library : libebml v1.2.2 + libmatroska v1.3.0
Video #1
ID : 1
Format : AVC
Format/Info : Advanced Video Codec
Format profile : [url=mailto:High@L4.0]High@L4.0[/url]
Format settings, CABAC : Yes
Format settings, ReFrames : 4 frames
Codec ID : V_MPEG4/ISO/AVC
Duration : 2h 10mn
Bit rate : 1 785 Kbps
Width : 720 pixels
Height : 536 pixels
Display aspect ratio : 4:3
Frame rate : 25.000 fps
Color space : YUV
Chroma subsampling : 4:2:0
Bit depth : 8 bits
Scan type : Progressive
Bits/(Pixel*Frame) : 0.185
Stream size : 1.59 GiB (78%)
Writing library : x264 core 119 r2106 07efeb4
Encoding settings : cabac=1 / ref=3 / deblock=1:0:0 / analyse=0x3:0x113 / me=hex / subme=7 / psy=1 / psy_rd=1.00:0.00 / mixed_ref=1 / me_range=16 / chroma_me=1 / trellis=1 / 8x8dct=1 / cqm=0 / deadzone=21,11 / fast_pskip=1 / chroma_qp_offset=-2 / threads=3 / sliced_threads=0 / nr=0 / decimate=1 / interlaced=0 / bluray_compat=0 / constrained_intra=0 / bframes=3 / b_pyramid=2 / b_adapt=1 / b_bias=0 / direct=3 / weightb=1 / open_gop=0 / weightp=2 / keyint=250 / keyint_min=25 / scenecut=40 / intra_refresh=0 / rc_lookahead=40 / rc=2pass / mbtree=1 / bitrate=1785 / ratetol=1.0 / qcomp=0.60 / qpmin=0 / qpmax=69 / qpstep=4 / cplxblur=20.0 / qblur=0.5 / ip_ratio=1.40 / aq=1:1.00
Audio #2
ID : 2
Format : AC-3
Format/Info : Audio Coding 3
Mode extension : CM (complete main)
Codec ID : A_AC3
Duration : 2h 10mn
Bit rate mode : Constant
Bit rate : 448 Kbps
Channel(s) : 6 channels
Channel positions : Front: L C R, Side: L R, LFE
Sampling rate : 48.0 KHz
Bit depth : 16 bits
Compression mode : Lossy
Stream size : 419 MiB (20%)

Скриншоты

Постер


--
Пожалуйста, оставайтесь на раздаче как можно дольше--Последняя серия мультфильма («Как казаки в хоккей играли», 1995 г.) была снята после распада СССР на студии «Укранимафильм» и не вошла в данный сборник. Кто хочет докачать 9 серию Казаки. Сборник мультфильмов [9 серий из 9] (Владимир Дахно) [1967-1995 г., Мультфильм, DVDRip]

_________________
Показать сообщения:    

Текущее время: Сегодня 09:15

Часовой пояс: GMT



Вы не можете начинать темы
Вы не можете отвечать на сообщения
Вы не можете редактировать свои сообщения
Вы не можете удалять свои сообщения
Вы не можете голосовать в опросах
Вы не можете прикреплять файлы к сообщениям
Вы не можете скачивать файлы