Важное объявление!
У Нас Все раздачи мультитрекерные, при нуле пиров в релизах, можете смело вставать на закачку!
 
Автор Сообщение

HUNTER

Стаж:
4 года 4 месяца
Сообщений:
56719

Репутация: 101

[+] [-]
Вне форума [Профиль] [ЛС]

Кадиллак Рекордс / Cadillac Records
Страна: США
Жанр: драма, мелодрама, биография, история, музыка
Год выпуска: 2008
Продолжительность: 01:48:35
Перевод#1: Профессиональный (многоголосый закадровый) | R5
Перевод#2: Профессиональный (многоголосый закадровый) | CTC
Перевод#3: Авторский (одноголосый закадровый), С. Визгунов
Cубтитры: русские, английские
Оригинальная аудиодорожка: английский
Режиссер: Дарнелл Мартин / Darnell Martin
В ролях: Эдриан Броуди, Джеффри Райт, Бейонсе Ноулз, Гэбриэл Юнион, Коламбус Шорт, Седрик «Развлекатель», Эммануэль Шрики, Имонн Уолкер, Мос Деф, Тим Беллоу
Описание: Эта история о сексе, жестокости, расе и рок-н-ролле Чикаго 1950-х. «Кадиллак Рекордс» прослеживает захватывающие, но бурные жизни некоторых музыкальных легенд Америки, включая Мадди Уотерса, Леонарда Чезза, Литтл Уолтера, Хоулин Уолфа, Этты Джеймс и Чака Берри...

Исходник: Cadillac Records 2008 1080p Blu-ray CEE AVC TrueHD 5.1-rfw @ HDBits
Тип релиза: BDRemux 1080p | sample
Контейнер: MKV
Видео кодек: x264
Видео: MPEG-4 AVC 1920x1080 (16:9), 23.976 fps, ~27 Mbps
Аудио #1: Russian AC3 6ch 48kHz 448Kbps | MVO R5
Аудио #2: Russian AC3 2ch 48kHz 192Kbps | MVO СТС
Аудио #3: Russian AC3 6ch 48kHz 384Kbps | AVO Визгунов
Аудио #4: English TrueHD / 5.1 / 48 kHz / 1453 kbps / 16-bit (AC3 Embedded: 5.1 / 48 kHz / 640 kbps / DN -5dB) | Original
Аудио #5: English AC3 2ch 48kHz 192Kbps | Commentary
Формат субтитров: softsub (SRT)
Главы: есть

MediaInfo

General
Complete name : D:\...\Cadillac.Records.2008.CEE.1080p.Remux.AVC.Rus.Eng.mkv
Format : Matroska
Format version : Version 2
File size : 22.5 GiB
Duration : 1h 48mn
Overall bit rate mode : Variable
Overall bit rate : 29.7 Mbps
Movie name : Cadillac.Records.2008.CEE.1080p.Remux.AVC.Rus.Eng
Encoded date : UTC 2014-01-16 07:50:33
Writing application : mkvmerge v6.5.0 ('Isn't she lovely') built on Oct 20 2013 12:50:05
Writing library : libebml v1.3.0 + libmatroska v1.4.1
Video
ID : 1
Format : AVC
Format/Info : Advanced Video Codec
Format profile : High@L4.1
Format settings, CABAC : Yes
Format settings, ReFrames : 4 frames
Format settings, GOP : M=3, N=12
Codec ID : V_MPEG4/ISO/AVC
Duration : 1h 48mn
Bit rate mode : Variable
Maximum bit rate : 29.0 Mbps
Width : 1 920 pixels
Height : 1 080 pixels
Display aspect ratio : 16:9
Frame rate mode : Constant
Frame rate : 23.976 fps
Color space : YUV
Chroma subsampling : 4:2:0
Bit depth : 8 bits
Scan type : Progressive
Title : Cadillac Records (2008)
Language : English
Default : Yes
Forced : No
Color primaries : BT.709
Transfer characteristics : BT.709
Matrix coefficients : BT.709
Audio #1
ID : 2
Format : AC-3
Format/Info : Audio Coding 3
Mode extension : CM (complete main)
Format settings, Endianness : Big
Codec ID : A_AC3
Duration : 1h 48mn
Bit rate mode : Constant
Bit rate : 448 Kbps
Channel(s) : 6 channels
Channel positions : Front: L C R, Side: L R, LFE
Sampling rate : 48.0 KHz
Bit depth : 16 bits
Compression mode : Lossy
Stream size : 348 MiB (2%)
Title : MVO R5
Language : Russian
Default : Yes
Forced : No
Audio #2
ID : 3
Format : AC-3
Format/Info : Audio Coding 3
Mode extension : CM (complete main)
Format settings, Endianness : Big
Codec ID : A_AC3
Duration : 1h 48mn
Bit rate mode : Constant
Bit rate : 192 Kbps
Channel(s) : 2 channels
Channel positions : Front: L R
Sampling rate : 48.0 KHz
Bit depth : 16 bits
Compression mode : Lossy
Stream size : 149 MiB (1%)
Title : MVO CTC
Language : Russian
Default : No
Forced : No
Audio #3
ID : 4
Format : AC-3
Format/Info : Audio Coding 3
Mode extension : CM (complete main)
Format settings, Endianness : Big
Codec ID : A_AC3
Duration : 1h 48mn
Bit rate mode : Constant
Bit rate : 384 Kbps
Channel(s) : 6 channels
Channel positions : Front: L C R, Side: L R, LFE
Sampling rate : 48.0 KHz
Bit depth : 16 bits
Compression mode : Lossy
Stream size : 298 MiB (1%)
Title : AVO Vizgunov
Language : Russian
Default : No
Forced : No
Audio #4
ID : 5
Format : TrueHD
Codec ID : A_TRUEHD
Duration : 1h 48mn
Bit rate mode : Variable
Maximum bit rate : 2 871 Kbps
Channel(s) : 6 channels
Channel positions : Front: L C R, Side: L R, LFE
Sampling rate : 48.0 KHz
Compression mode : Lossless
Title : Original
Language : English
Default : No
Forced : No
Audio #5
ID : 6
Format : AC-3
Format/Info : Audio Coding 3
Format profile : Dolby Digital
Mode extension : CM (complete main)
Format settings, Endianness : Big
Codec ID : A_AC3
Duration : 1h 48mn
Bit rate mode : Constant
Bit rate : 192 Kbps
Channel(s) : 2 channels
Channel positions : Front: L R
Sampling rate : 48.0 KHz
Bit depth : 16 bits
Compression mode : Lossy
Stream size : 149 MiB (1%)
Title : Commentary
Language : English
Default : No
Forced : No
Text #1
ID : 7
Format : UTF-8
Codec ID : S_TEXT/UTF8
Codec ID/Info : UTF-8 Plain Text
Title : forced
Language : Russian
Default : Yes
Forced : No
Text #2
ID : 8
Format : UTF-8
Codec ID : S_TEXT/UTF8
Codec ID/Info : UTF-8 Plain Text
Language : Russian
Default : No
Forced : No
Text #3
ID : 9
Format : UTF-8
Codec ID : S_TEXT/UTF8
Codec ID/Info : UTF-8 Plain Text
Language : English
Default : No
Forced : No
Menu
00:00:00.000 : en:00:00:00.000
00:00:48.048 : en:00:00:48.048
00:17:01.479 : en:00:17:01.479
00:20:04.495 : en:00:20:04.495
00:23:42.004 : en:00:23:42.004
00:24:37.893 : en:00:24:37.893
00:26:34.092 : en:00:26:34.092
00:27:56.466 : en:00:27:56.466
00:29:51.540 : en:00:29:51.540
00:33:59.162 : en:00:33:59.162
00:38:33.144 : en:00:38:33.144
00:44:52.273 : en:00:44:52.273
00:46:10.518 : en:00:46:10.518
00:52:14.298 : en:00:52:14.298
00:55:14.436 : en:00:55:14.436
00:56:36.476 : en:00:56:36.476
00:56:59.499 : en:00:56:59.499
00:59:49.503 : en:00:59:49.503
01:00:22.744 : en:01:00:22.744
01:02:15.857 : en:01:02:15.857
01:03:59.252 : en:01:03:59.252
01:08:50.126 : en:01:08:50.126
01:11:33.873 : en:01:11:33.873
01:14:03.105 : en:01:14:03.105
01:16:39.595 : en:01:16:39.595
01:19:38.107 : en:01:19:38.107
01:26:53.208 : en:01:26:53.208
01:29:31.199 : en:01:29:31.199
01:34:08.017 : en:01:34:08.017
01:36:28.616 : en:01:36:28.616
01:42:16.047 : en:01:42:16.047
01:42:45.117 : en:01:42:45.117
01:44:28.721 : en:01:44:28.721

Скриншоты



_________________
Показать сообщения:    

Текущее время: Сегодня 01:44

Часовой пояс: GMT



Вы не можете начинать темы
Вы не можете отвечать на сообщения
Вы не можете редактировать свои сообщения
Вы не можете удалять свои сообщения
Вы не можете голосовать в опросах
Вы не можете прикреплять файлы к сообщениям
Вы не можете скачивать файлы