Важное объявление!
У Нас Все раздачи мультитрекерные, при нуле пиров в релизах, можете смело вставать на закачку!
 
Автор Сообщение

HUNTER

Стаж:
4 года 4 месяца
Сообщений:
56842

Репутация: 101

[+] [-]
Вне форума [Профиль] [ЛС]

Кабинетный гарнитур / Сослуживцы / Desk Set
Страна: США
Жанр: комедия, мелодрама
Год выпуска: 1957
Продолжительность: 01:43:33
Перевод#1: Профессиональный (многоголосый закадровый) | 1-й канал
Перевод#2: Профессиональный (многоголосый закадровый) | R5 Двадцатый Век Фокс СНГ
Перевод#3: Профессиональный (двухголосый закадровый) | Рен-ТВ
Cубтитры: русские, английские
Оригинальная аудиодорожка: английский
Режиссер: Уолтер Лэнг / Walter Lang
В ролях: Спенсер Трэйси, Кэтрин Хепберн, Гиг Янг, Джоан Блонделл, Дина Мэрилл, Сью Рэндолл, Нева Паттерсон, Гарри Эллерб, Николас Джой, Дайан Йоргенс
Описание: Ричард Самнер - специалист в области повышения производительности труда. Банни Уотсон возглавляет небольшой отдел в телекомпании. Ее сотрудницы вполне квалифицированно могут дать ответы на самые разные вопросы, опираясь на собственную память. Но тут появляется Самнер с изобретенной им машиной «Эмерак», ласково называемой «Эмми», и говорит: «Вот электронный мозг, способный дать ответ на любой запрос!»
Банни и ее коллеги, разумеется, встречают в штыки этакое рацпредложение, угрожающее их существованию. У Ричарда же есть два аргумента в пользу своего сотрудничества с отделом миссиc Уотсон: первый - «Эмми» будет помогать в работе, никого не подменяя, а второй - Банни покорила сердце Самнера, и он надеется на взаимность… А вот дружок Банни Майк подавлен тем, что у его пассии, похоже, намечается с Самнером роман. В офисе страсти разгораются все сильнее, и все смешнее становится эта комедия, классическая и романтическая...

Тип релиза: BDRip 720p (от DON) | sample
Контейнер: MKV
Видео кодек: x264
Видео: AVC 1280x544 (2.35:1), 23.976 fps, ~9200 Kbps, 0.55 bit/pixel
Аудио #1: Russian AC3 1ch 48kHz 192Kbps | MVO 1-й канал
Аудио #2: Russian AC3 1ch 48kHz 192Kbps | MVO R5 Двадцатый Век Фокс СНГ
Аудио #3: Russian AC3 2ch 48kHz 192Kbps | DVO Рен-ТВ
Аудио #4: English AC3 2ch 48kHz 192Kbps | Original DVD
Аудио #5: English FLAC 1ch 48 kHz ~658Kbps | Original BD
Аудио #6: English AAC-LC 2ch 48kHz ~75Kbps | Commentary
Формат субтитров: softsub (SRT)
Главы: есть

Дополнительно

За запись дороги №1 с 1HD и работу над дорогами №1 и №2 спасибо xfiles
Исходная R5 на поверку оказалась шестиканальным моно
За работу над дорогами №3 и №4 благодарим Linger babe

MediaInfo | x264

x264

x264 [info]: frame I:739 Avg QP:15.39 size:154386
x264 [info]: frame P:27244 Avg QP:16.90 size: 83805
x264 [info]: frame B:120984 Avg QP:18.45 size: 39229
x264 [info]: consecutive B-frames: 0.5% 0.2% 2.0% 10.4% 16.7% 63.4% 5.9% 0.8%
General
Complete name : E:\...\Desk.Set.1957.720p.BluRay.x264.3xRus.Eng-DON.mkv
Format : Matroska
Format version : Version 2
File size : 7.74 GiB
Duration : 1h 43mn
Overall bit rate mode : Variable
Overall bit rate : 10.7 Mbps
Movie name : Desk.Set.1957.720p.BluRay.x264.3xRus.Eng-DON
Encoded date : UTC 2014-02-06 11:32:02
Writing application : mkvmerge v6.5.0 ('Isn't she lovely') built on Oct 20 2013 12:50:05
Writing library : libebml v1.3.0 + libmatroska v1.4.1
Video
ID : 1
Format : AVC
Format/Info : Advanced Video Codec
Format profile : High@L4.1
Format settings, CABAC : Yes
Format settings, ReFrames : 12 frames
Codec ID : V_MPEG4/ISO/AVC
Duration : 1h 43mn
Width : 1 280 pixels
Height : 544 pixels
Display aspect ratio : 2.35:1
Frame rate mode : Constant
Frame rate : 23.976 fps
Color space : YUV
Chroma subsampling : 4:2:0
Bit depth : 8 bits
Scan type : Progressive
Title : Desk Set (1957)
Writing library : x264 core 129 r2245+729M 1a52e03
Encoding settings : cabac=1 / ref=12 / deblock=1:-3:-3 / analyse=0x3:0x133 / me=umh / subme=10 / psy=1 / fade_compensate=0.00 / psy_rd=1.00:0.00 / mixed_ref=1 / me_range=32 / chroma_me=1 / trellis=2 / 8x8dct=1 / cqm=0 / deadzone=21,11 / fast_pskip=0 / chroma_qp_offset=-2 / threads=3 / lookahead_threads=1 / sliced_threads=0 / nr=0 / decimate=0 / interlaced=0 / bluray_compat=0 / constrained_intra=0 / fgo=0 / bframes=7 / b_pyramid=2 / b_adapt=2 / b_bias=0 / direct=3 / weightb=1 / open_gop=0 / weightp=2 / keyint=250 / keyint_min=23 / scenecut=40 / intra_refresh=0 / rc=crf / mbtree=0 / crf=16.0 / qcomp=0.65 / qpmin=0 / qpmax=69 / qpstep=4 / ip_ratio=1.40 / pb_ratio=1.30 / aq=3:0.90
Language : English
Default : Yes
Forced : No
Audio #1
ID : 2
Format : AC-3
Format/Info : Audio Coding 3
Mode extension : CM (complete main)
Format settings, Endianness : Big
Codec ID : A_AC3
Duration : 1h 43mn
Bit rate mode : Constant
Bit rate : 192 Kbps
Channel(s) : 1 channel
Channel positions : Front: C
Sampling rate : 48.0 KHz
Bit depth : 16 bits
Compression mode : Lossy
Stream size : 142 MiB (2%)
Title : MVO 1st Channel
Language : Russian
Default : Yes
Forced : No
Audio #2
ID : 3
Format : AC-3
Format/Info : Audio Coding 3
Mode extension : CM (complete main)
Format settings, Endianness : Big
Codec ID : A_AC3
Duration : 1h 43mn
Bit rate mode : Constant
Bit rate : 192 Kbps
Channel(s) : 1 channel
Channel positions : Front: C
Sampling rate : 48.0 KHz
Bit depth : 16 bits
Compression mode : Lossy
Stream size : 142 MiB (2%)
Title : MVO R5
Language : Russian
Default : No
Forced : No
Audio #3
ID : 4
Format : AC-3
Format/Info : Audio Coding 3
Mode extension : CM (complete main)
Format settings, Endianness : Big
Codec ID : A_AC3
Duration : 1h 43mn
Bit rate mode : Constant
Bit rate : 192 Kbps
Channel(s) : 2 channels
Channel positions : Front: L R
Sampling rate : 48.0 KHz
Bit depth : 16 bits
Compression mode : Lossy
Stream size : 142 MiB (2%)
Title : DVO Ren-TV
Language : Russian
Default : No
Forced : No
Audio #4
ID : 5
Format : AC-3
Format/Info : Audio Coding 3
Mode extension : CM (complete main)
Format settings, Endianness : Big
Codec ID : A_AC3
Duration : 1h 43mn
Bit rate mode : Constant
Bit rate : 192 Kbps
Channel(s) : 2 channels
Channel positions : Front: L R
Sampling rate : 48.0 KHz
Bit depth : 16 bits
Compression mode : Lossy
Stream size : 142 MiB (2%)
Title : Original DVD DD 2.0
Language : English
Default : No
Forced : No
Audio #5
ID : 6
Format : FLAC
Format/Info : Free Lossless Audio Codec
Codec ID : A_FLAC
Duration : 1h 43mn
Bit rate mode : Variable
Channel(s) : 1 channel
Sampling rate : 48.0 KHz
Bit depth : 24 bits
Title : Original BD FLAC 1.0
Writing library : libFLAC 1.2.1 (UTC 2007-09-17)
Language : English
Default : No
Forced : No
Audio #6
ID : 7
Format : AAC
Format/Info : Advanced Audio Codec
Format profile : LC
Codec ID : A_AAC
Duration : 1h 43mn
Channel(s) : 2 channels
Channel positions : Front: L R
Sampling rate : 48.0 KHz
Compression mode : Lossy
Delay relative to video : 9ms
Title : Commentary
Language : English
Default : No
Forced : No
Text #1
ID : 8
Format : UTF-8
Codec ID : S_TEXT/UTF8
Codec ID/Info : UTF-8 Plain Text
Title : R5
Language : Russian
Default : No
Forced : No
Text #2
ID : 9
Format : UTF-8
Codec ID : S_TEXT/UTF8
Codec ID/Info : UTF-8 Plain Text
Language : English
Default : No
Forced : No
Text #3
ID : 10
Format : UTF-8
Codec ID : S_TEXT/UTF8
Codec ID/Info : UTF-8 Plain Text
Title : SDH
Language : English
Default : No
Forced : No
Menu
00:00:00.000 : :00:00:00.000
00:02:01.121 : :00:02:01.121
00:04:04.327 : :00:04:04.327
00:09:23.772 : :00:09:23.772
00:13:27.181 : :00:13:27.181
00:16:06.757 : :00:16:06.757
00:18:17.096 : :00:18:17.096
00:24:12.326 : :00:24:12.326
00:29:13.961 : :00:29:13.961
00:37:47.390 : :00:37:47.390
00:39:58.062 : :00:39:58.062
00:43:17.512 : :00:43:17.512
00:47:01.819 : :00:47:01.819
00:57:22.147 : :00:57:22.147
01:01:10.792 : :01:01:10.792
01:07:33.049 : :01:07:33.049
01:10:29.350 : :01:10:29.350
01:15:09.714 : :01:15:09.714
01:17:40.239 : :01:17:40.239
01:20:51.180 : :01:20:51.180
01:23:33.300 : :01:23:33.300
01:26:43.407 : :01:26:43.407
01:35:17.128 : :01:35:17.128
01:39:10.945 : :01:39:10.945

Скриншоты

source vs DON



_________________
Показать сообщения:    

Текущее время: Сегодня 12:19

Часовой пояс: GMT



Вы не можете начинать темы
Вы не можете отвечать на сообщения
Вы не можете редактировать свои сообщения
Вы не можете удалять свои сообщения
Вы не можете голосовать в опросах
Вы не можете прикреплять файлы к сообщениям
Вы не можете скачивать файлы