Важное объявление!
У Нас Все раздачи мультитрекерные, при нуле пиров в релизах, можете смело вставать на закачку!
 
Автор Сообщение

HUNTER

Стаж:
4 года 4 месяца
Сообщений:
56790

Репутация: 101

[+] [-]
Вне форума [Профиль] [ЛС]

Кабан-секач / Секач / Вепрь с хребтом острым как бритва / Razorback
Страна: Австралия
Жанр: ужасы, триллер
Год выпуска: 1984
Продолжительность: 01:31:01
-
Перевод 1: Профессиональный (двухголосый закадровый) Премьер Видео Фильм
Перевод 2: Авторский (одноголосый закадровый) Андрей Гаврилов
Cубтитры: английские, испанские и шведские
Оригинальная аудиодорожка: английский
-
Режиссер: Рассел Малкэй / Russell Mulcahy
В ролях: Грегори Харрисон, Арки Уайтели, Билл Керр, Крис Хейвуд, Дэвид Арге, Джон Ховард, Джон Эварт, Джуди Моррис
-
Описание: Где-то на бескрайних просторах Австралии бродит жуткое существо, которое может разорвать человека в клочья и разрушить ваш дом за считанные секунды… Это — секач, гигантское и безжалостное существо, уродливое и страшное порождение природы, четырехсот килограммовая тварь с острыми как бритва клыками. В тех самых местах, где бродит секач, без следа исчезает американская журналистка. Ее безутешный муж отправляется на поиски пропавшей супруги и попадает в завораживающую круговерть кошмара и ужаса.
-

-
Сэмпл: https://www.sendspace.com/file/1n8gff
-
Тип релиза: BDRip 720p (SbR)
Контейнер: MKV
Видео: 1280x544p (2.35:1), 25.000 fps, 8365Kbps
Аудио 1: русский / AC3 / 2.0 / 48 kHz / 192 kbps / 16 bit || DVO
Аудио 2: русский / AC3 / 2.0 / 48 kHz / 192 kbps / 16 bit || AVO
Аудио 3: английский / AC3 / 5.1 / 48 kHz / 640 kbps / 16 bit || ENG
Формат субтитров: softsub (SRT)
Главы: есть

Доп. информация

Рип от SbR скачан из сети и добавлены русские зв. дорожки отсюда http://rutracker.org/forum/viewtopic.php?t=3841862 Авторам спасибо

MediaInfo

General
Unique ID : 187446084808391409441435982254286102580 (0x8D04CD8245F7FB32B7C5E44F12FCE034)
Complete name : C:\Users\ALEX\Downloads\Фильмы\HD\Razorback.1984.BDRip.720p.2xRus.Eng.Subs.Chpt.mkv
Format : Matroska
Format version : Version 4 / Version 2
File size : 6.09 GiB
Duration : 1h 31mn
Overall bit rate : 9 572 Kbps
Encoded date : UTC 2014-08-29 07:23:29
Writing application : mkvmerge v6.6.0 ('The Edge Of The In Between') built on Dec 1 2013 17:55:00
Writing library : libebml v1.3.0 + libmatroska v1.4.1
Video
ID : 1
Format : AVC
Format/Info : Advanced Video Codec
Format profile : High@L4.1
Format settings, CABAC : Yes
Format settings, ReFrames : 12 frames
Codec ID : V_MPEG4/ISO/AVC
Duration : 1h 31mn
Bit rate : 8 358 Kbps
Width : 1 280 pixels
Height : 544 pixels
Display aspect ratio : 2.35:1
Frame rate mode : Constant
Frame rate : 25.000 fps
Color space : YUV
Chroma subsampling : 4:2:0
Bit depth : 8 bits
Scan type : Progressive
Bits/(Pixel*Frame) : 0.480
Stream size : 5.31 GiB (87%)
Title : SbR
Writing library : x264 core 142 r2453kMod ea0ca51
Encoding settings : cabac=1 / ref=12 / deblock=1:-3:-3 / analyse=0x3:0x133 / me=esa / subme=10 / psy=1 / fade_compensate=0.00 / psy_rd=1.00:0.00 / mixed_ref=1 / me_range=24 / chroma_me=1 / trellis=2 / 8x8dct=1 / cqm=0 / deadzone=21,11 / fast_pskip=0 / chroma_qp_offset=-2 / threads=6 / lookahead_threads=1 / sliced_threads=0 / nr=0 / decimate=1 / interlaced=0 / bluray_compat=0 / constrained_intra=0 / fgo=0 / bframes=10 / b_pyramid=2 / b_adapt=2 / b_bias=0 / direct=3 / weightb=1 / open_gop=0 / weightp=2 / keyint=250 / keyint_min=25 / scenecut=40 / intra_refresh=0 / rc_lookahead=60 / rc=crf / mbtree=0 / crf=16.7500 / qcomp=0.70 / qpmin=0 / qpmax=69 / qpstep=4 / vbv_maxrate=62500 / vbv_bufsize=78125 / crf_max=0.0 / nal_hrd=none / filler=0 / ip_ratio=1.30 / pb_ratio=1.20 / aq=1:0.60
Language : English
Default : Yes
Forced : No
Matrix coefficients : BT.709
Audio #1
ID : 2
Format : AC-3
Format/Info : Audio Coding 3
Mode extension : CM (complete main)
Format settings, Endianness : Big
Codec ID : A_AC3
Duration : 1h 31mn
Bit rate mode : Constant
Bit rate : 192 Kbps
Channel(s) : 2 channels
Channel positions : Front: L R
Sampling rate : 48.0 KHz
Bit depth : 16 bits
Compression mode : Lossy
Stream size : 125 MiB (2%)
Title : DVO
Language : Russian
Default : Yes
Forced : No
Audio #2
ID : 3
Format : AC-3
Format/Info : Audio Coding 3
Mode extension : CM (complete main)
Format settings, Endianness : Big
Codec ID : A_AC3
Duration : 1h 31mn
Bit rate mode : Constant
Bit rate : 192 Kbps
Channel(s) : 2 channels
Channel positions : Front: L R
Sampling rate : 48.0 KHz
Bit depth : 16 bits
Compression mode : Lossy
Stream size : 125 MiB (2%)
Title : AVO - Gavrilov
Language : Russian
Default : No
Forced : No
Audio #3
ID : 4
Format : AC-3
Format/Info : Audio Coding 3
Mode extension : CM (complete main)
Format settings, Endianness : Big
Codec ID : A_AC3
Duration : 1h 31mn
Bit rate mode : Constant
Bit rate : 640 Kbps
Channel(s) : 6 channels
Channel positions : Front: L C R, Side: L R, LFE
Sampling rate : 48.0 KHz
Bit depth : 16 bits
Compression mode : Lossy
Stream size : 417 MiB (7%)
Title : Original
Language : English
Default : No
Forced : No
Text #1
ID : 5
Format : UTF-8
Codec ID : S_TEXT/UTF8
Codec ID/Info : UTF-8 Plain Text
Title : Full
Language : English
Default : No
Forced : No
Text #2
ID : 6
Format : UTF-8
Codec ID : S_TEXT/UTF8
Codec ID/Info : UTF-8 Plain Text
Title : Full
Language : Spanish
Default : No
Forced : No
Text #3
ID : 7
Format : UTF-8
Codec ID : S_TEXT/UTF8
Codec ID/Info : UTF-8 Plain Text
Title : Full
Language : Swedish
Default : No
Forced : No
Menu
00:00:00.000 : en:00:00:00.000
00:09:56.760 : en:00:09:56.760
00:18:22.160 : en:00:18:22.160
00:27:53.400 : en:00:27:53.400
00:33:16.440 : en:00:33:16.440
00:37:14.080 : en:00:37:14.080
00:44:26.600 : en:00:44:26.600
00:48:30.440 : en:00:48:30.440
00:54:55.000 : en:00:54:55.000
01:04:10.720 : en:01:04:10.720
01:14:07.120 : en:01:14:07.120
01:21:31.400 : en:01:21:31.400
01:28:11.880 : en:01:28:11.880

Скриншоты


_________________
Показать сообщения:    

Текущее время: Сегодня 08:57

Часовой пояс: GMT



Вы не можете начинать темы
Вы не можете отвечать на сообщения
Вы не можете редактировать свои сообщения
Вы не можете удалять свои сообщения
Вы не можете голосовать в опросах
Вы не можете прикреплять файлы к сообщениям
Вы не можете скачивать файлы