Важное объявление!
У Нас Все раздачи мультитрекерные, при нуле пиров в релизах, можете смело вставать на закачку!
 
Автор Сообщение

HUNTER

Стаж:
4 года 4 месяца
Сообщений:
56772

Репутация: 101

[+] [-]
Вне форума [Профиль] [ЛС]

Исчезнувшая империя
Страна: Россия
Жанр: драма
Год выпуска: 2007
Продолжительность: 01:48:44
Cубтитры: English, French, German, Spanish-Режиссер: Карен Шахназаров-В ролях: Егор Барановский (Степан Молодцов), Армен Джигарханян (дед Сергея и Миши), Владимир Ильин (Степан 30 лет спустя), Янина Калганова (Катя), Екатерина Каспарова, Иван Купреенко (Костя Денисов), Александр Ляпин (Сергей Нарбеков), Лидия Милюзина (Люда Белецкая), Велимир Русаков (Волокницкий), Василий Шахназаров (Миша), Ольга Тумайкина (мама Сергея), Татьяна Яковенко (мама Люды)-Описание: Действие фильма разворачивается в 70-е годы прошлого века в Москве. В центре сюжета классический любовный треугольник - два парня и девушка. Они учатся в одном институте, живут в одной большой стране, не подозревая о том, что уже совсем скоро она исчезнет со всех географических карт планеты. Картина о любви, о молодости, о стране под названием Советский Союз.-Рип от EbP!-Качество видео: BDRip
Формат видео: MKV
Видео: 1204x720 at 23.976 fps, x264@L4.1, crf, ~6196 kbps avg
Аудио: Russian: 48 kHz, AC3, 3/2 (L,C,R,l,r) + LFE ch, ~640.00 kbps avg-Скачать сэмпл-

MediaInfo

Код:
Формат                                   : Matroska
Версия формата                           : Version 2
Размер файла                             : 5,30 Гбайт
Продолжительность                        : 1 ч. 48 м.
Общий поток                              : 6974 Кбит/сек
Дата кодирования                         : UTC 2016-10-16 13:05:36
Программа кодирования                    : mkvmerge v4.2.0 ('No Talking') сборка от Jul 28 2010 18:38:23
Библиотека кодирования                   : libebml v1.0.0 + libmatroska v1.0.0
Видео
Идентификатор                            : 1
Формат                                   : AVC
Формат/Информация                        : Advanced Video Codec
Профиль формата                          : High@L4.1
Параметр CABAC формата                   : Да
Параметр ReFrames формата                : 9 кадров
Идентификатор кодека                     : V_MPEG4/ISO/AVC
Продолжительность                        : 1 ч. 48 м.
Битрейт                                  : 6196 Кбит/сек
Ширина                                   : 1204 пикселя
Высота                                   : 720 пикселей
Соотношение сторон                       : 5:3
Режим частоты кадров                     : Постоянный
Частота кадров                           : 23,976 (24000/1001) кадра/сек
Цветовое пространство                    : YUV
Субдискретизация насыщенности            : 4:2:0
Битовая глубина                          : 8 бит
Тип развёртки                            : Прогрессивная
Бит/(Пиксели*Кадры)                      : 0.298
Размер потока                            : 4,71 Гбайт (89%)
Заголовок                                : Vanished Empire
Библиотека кодирования                   : x264 core 120 r2164 da19765
Настройки программы                      : cabac=1 / ref=9 / deblock=1:-3:-3 / analyse=0x3:0x133 / me=umh / subme=9 / psy=1 / psy_rd=1.15:0.10 / mixed_ref=1 / me_range=16 / chroma_me=1 / trellis=2 / 8x8dct=1 / cqm=0 / deadzone=21,11 / fast_pskip=0 / chroma_qp_offset=-3 / threads=12 / sliced_threads=0 / nr=0 / decimate=0 / interlaced=0 / bluray_compat=0 / constrained_intra=0 / bframes=8 / b_pyramid=2 / b_adapt=2 / b_bias=0 / direct=3 / weightb=1 / open_gop=0 / weightp=2 / keyint=250 / keyint_min=23 / scenecut=40 / intra_refresh=0 / rc=crf / mbtree=0 / crf=17.5 / qcomp=0.60 / qpmin=10 / qpmax=51 / qpstep=4 / ip_ratio=1.40 / pb_ratio=1.20 / aq=1:0.80
Язык                                     : Russian
Default                                  : Да
Forced                                   : Нет
Аудио
Идентификатор                            : 2
Формат                                   : AC-3
Формат/Информация                        : Audio Coding 3
Расширение режима                        : CM (complete main)
Параметр Endianness формата              : Big
Идентификатор кодека                     : A_AC3
Продолжительность                        : 1 ч. 48 м.
Вид битрейта                             : Постоянный
Битрейт                                  : 640 Кбит/сек
Каналы                                   : 6 каналов
Расположение каналов                     : Front: L C R, Side: L R, LFE
Частота                                  : 48,0 КГц
Частота кадров                           : 31,250 кадров/сек (1536 spf)
Метод сжатия                             : С потерями
Размер потока                            : 498 Мбайт (9%)
Заголовок                                : Vanished Empire
Язык                                     : Russian
Default                                  : Да
Forced                                   : Нет
Текст #1
Идентификатор                            : 3
Формат                                   : UTF-8
Идентификатор кодека                     : S_TEXT/UTF8
Идентификатор кодека/Информация          : UTF-8 Plain Text
Заголовок                                : Vanished Empire
Язык                                     : English
Default                                  : Нет
Forced                                   : Нет
Текст #2
Идентификатор                            : 4
Формат                                   : UTF-8
Идентификатор кодека                     : S_TEXT/UTF8
Идентификатор кодека/Информация          : UTF-8 Plain Text
Заголовок                                : Vanished Empire
Язык                                     : French
Default                                  : Нет
Forced                                   : Нет
Текст #3
Идентификатор                            : 5
Формат                                   : UTF-8
Идентификатор кодека                     : S_TEXT/UTF8
Идентификатор кодека/Информация          : UTF-8 Plain Text
Заголовок                                : Vanished Empire
Язык                                     : German
Default                                  : Нет
Forced                                   : Нет
Текст #4
Идентификатор                            : 6
Формат                                   : UTF-8
Идентификатор кодека                     : S_TEXT/UTF8
Идентификатор кодека/Информация          : UTF-8 Plain Text
Заголовок                                : Vanished Empire
Язык                                     : Spanish
Default                                  : Нет
Forced                                   : Нет

Скриншоты


_________________
Показать сообщения:    

Текущее время: Сегодня 16:45

Часовой пояс: GMT



Вы не можете начинать темы
Вы не можете отвечать на сообщения
Вы не можете редактировать свои сообщения
Вы не можете удалять свои сообщения
Вы не можете голосовать в опросах
Вы не можете прикреплять файлы к сообщениям
Вы не можете скачивать файлы