Важное объявление!
У Нас Все раздачи мультитрекерные, при нуле пиров в релизах, можете смело вставать на закачку!
 
Автор Сообщение

HUNTER

Стаж:
4 года 4 месяца
Сообщений:
56842

Репутация: 101

[+] [-]
Вне форума [Профиль] [ЛС]


Исцели свою жизнь-Год выпуска: 2010
Страна: USA
Сайт производителя: отсутствует
Тематика: психология
Тип материала: Обучающее видео
Продолжительность: 01:42:02
Автор: Луиза Хей
Язык: Русский (Профессиональный (одноголосый))
Субтитры: отсутствуют-Описание: Многим помогло бы провести у себя в голове "ментальную уборку, простить себя,принять, полюбить себя таким, какой есть", и тогда внутреннее отразится во внешнем. Измени свои мысли - и ты изменишь свою реальность. Люди!? Не занимайтесь самоедством, радуйтесь каждой минуте нашей прекрасной жизни!-Качество: SATRip
Формат: AVI
Видео кодек: DivX
Аудио кодек: MP3
Видео: 640x480 (1.33:1), 23.976 fps, DivX Codec 4.x ~470 kbps avg, 0.06 bit/pixel
Аудио: 44.100 kHz, MPEG Layer 3, 2 ch, ~320.00 kbps avg-

MediaInfo

Код: copyText_writeLink('this.parentNode.parentNode.nextSibling.nextSibling'); Общее
Полное имя : D:\обуч\isceli_svou_zhizn\Луиза Хей- Исцели свою жизнь.avi
Формат : AVI
Формат/Информация : Audio Video Interleave
Размер файла : 586 Мбайт
Продолжительность : 1 ч. 42 м.
Общий поток : 803 Кбит/сек
Программа кодирования : Lavf52.32.0
Видео
Идентификатор : 0
Формат : MPEG-4 Visual
Профиль формата : Simple@L1
Параметр BVOP формата : Нет
Параметр QPel формата : Нет
Параметр GMC формата : Без точки перехода
Параметр матрицы формата : Default (H.263)
Идентификатор кодека : DIVX
Идентификатор кодека/Информация : Project Mayo
Идентификатор кодека/Подсказка : DivX 4
Продолжительность : 1 ч. 42 м.
Битрейт : 471 Кбит/сек
Ширина : 640 пикселей
Высота : 480 пикселей
Соотношение сторон : 4:3
Частота кадров : 23,976 кадра/сек
Цветовое пространство : YUV
Субдискретизация насыщенности : 4:2:0
Битовая глубина : 8 бит
Тип развёртки : Прогрессивная
Метод сжатия : С потерями
Бит/(Пиксели*Кадры) : 0.064
Размер потока : 344 Мбайт (59%)
Библиотека кодирования : Lavc52.22.3
Аудио
Идентификатор : 1
Формат : MPEG Audio
Версия формата : Version 1
Профиль формата : Layer 3
Режим : Joint stereo
Расширение режима : MS Stereo
Идентификатор кодека : 55
Идентификатор кодека/Подсказка : MP3
Продолжительность : 1 ч. 42 м.
Вид битрейта : Постоянный
Битрейт : 320 Кбит/сек
Каналы : 2 канала
Частота : 44,1 КГц
Метод сжатия : С потерями
Размер потока : 234 Мбайт (40%)
Выравнивание : Соединение по промежуткам
Продолжительность промежутка : 26 мс. (0,63 видеокадр)
Библиотека кодирования : LAME3.98.2

Скриншоты

-

_________________
Показать сообщения:    

Текущее время: Сегодня 20:52

Часовой пояс: GMT



Вы не можете начинать темы
Вы не можете отвечать на сообщения
Вы не можете редактировать свои сообщения
Вы не можете удалять свои сообщения
Вы не можете голосовать в опросах
Вы не можете прикреплять файлы к сообщениям
Вы не можете скачивать файлы
Наши партнеры: интернет магазин Ивановского трикотажа textilla.ru