Важное объявление!
У Нас Все раздачи мультитрекерные, при нуле пиров в релизах, можете смело вставать на закачку!
 
Автор Сообщение

HUNTER

Стаж:
4 года 4 месяца
Сообщений:
56755

Репутация: 101

[+] [-]
Вне форума [Профиль] [ЛС]

Исцеление / The Cure-
Год выпуска: 1917
Страна: США
Жанр: комедия
Продолжительность: 00:26:29
Перевод: Субтитры
Оригинальная аудиодорожка: музыкальное сопровождение
Cубтитры: Русские, английские интертитры-Режиссер: Чарльз Чаплин / Charles Chaplin
В ролях: Чарльз Чаплин, Эдна Первиэнс, Эрик Кэмпбелл, Генри Бергман, Джон Рэнд, Джеймс Т. Келли, Альберт Остин, Фрэнк Дж. Коулмэн, Леота Брайан, Уильям Гиллеспи-Описание:
На сей раз повод для смеха у Чаплина — распространенная человеческая слабость — любовь к алкоголю. В этом фильме герой фильма — не бродяжка, а богатый выпивоха, приехавший на курорт минеральных вод. Но целебные воды — не для него, он притащил с собой огромный баул со спиртным, которого отведали неожиданно для себя все отдыхающие.- | IMDb | Сэмпл-Качество: BDRemux 1080p (Chaplin's Mutual Comedies 1916-1917 1080p Blu-ray AVC DD 2.0, thx batier22)
Контейнер: MKV
Видео: AVC, 1920x1080 (1.33:1), 23.976 fps, 25000 kbps
Аудио 1: AС3, 2.0, 48 kHz, 192 kbps — Music by Stephen Horne
Аудио 2: AС3, 2.0, 48 kHz, 192 kbps— Alternate Improvisational Piano by Maud Nelissen
Формат субтитров: softsub (SRT)

Скриншоты


MI

General
Unique ID : 236401124157913123835914375987340975416 (0xB1D9334CC68EED2BA92BE9E117A71D38)
Complete name : The.Cure.1917.1080p.Remux.mkv
Format : Matroska
Format version : Version 2
File size : 4.70 GiB
Duration : 26mn 29s
Overall bit rate mode : Variable
Overall bit rate : 25.4 Mbps
Movie name : The Cure / Исцеление (1917) – RuTracker
Encoded date : UTC 2014-08-28 15:26:09
Writing application : mkvmerge v7.0.0 ('Where We Going') 64bit built on Jun 9 2014 15:16:27
Writing library : libebml v1.3.0 + libmatroska v1.4.1
Attachment : Yes
Video
ID : 1
Format : AVC
Format/Info : Advanced Video Codec
Format profile : High@L4.1
Format settings, CABAC : Yes
Format settings, ReFrames : 4 frames
Format settings, GOP : M=3, N=24
Codec ID : V_MPEG4/ISO/AVC
Duration : 26mn 29s
Bit rate mode : Variable
Bit rate : 24.5 Mbps
Maximum bit rate : 35.0 Mbps
Width : 1 920 pixels
Height : 1 080 pixels
Display aspect ratio : 16:9
Frame rate mode : Constant
Frame rate : 23.976 fps
Standard : NTSC
Color space : YUV
Chroma subsampling : 4:2:0
Bit depth : 8 bits
Scan type : Progressive
Bits/(Pixel*Frame) : 0.493
Stream size : 4.53 GiB (96%)
Title : Chaplin's Mutual Comedies 1916-1917 1080p Blu-ray AVC DD 2.0
Language : English
Default : Yes
Forced : No
Color primaries : BT.709
Transfer characteristics : BT.709
Matrix coefficients : BT.709
Audio #1
ID : 2
Format : AC-3
Format/Info : Audio Coding 3
Mode extension : CM (complete main)
Format settings, Endianness : Big
Codec ID : A_AC3
Duration : 26mn 29s
Bit rate mode : Constant
Bit rate : 192 Kbps
Channel(s) : 2 channels
Channel positions : Front: L R
Sampling rate : 48.0 KHz
Bit depth : 16 bits
Compression mode : Lossy
Stream size : 36.4 MiB (1%)
Title : Music by Stephen Horne
Default : Yes
Forced : No
Audio #2
ID : 3
Format : AC-3
Format/Info : Audio Coding 3
Mode extension : CM (complete main)
Format settings, Endianness : Big
Codec ID : A_AC3
Duration : 26mn 29s
Bit rate mode : Constant
Bit rate : 192 Kbps
Channel(s) : 2 channels
Channel positions : Front: L R
Sampling rate : 48.0 KHz
Bit depth : 16 bits
Compression mode : Lossy
Stream size : 36.4 MiB (1%)
Title : Alternate Improvisational Piano by Maud Nelissen
Default : No
Forced : No
Text
ID : 4
Format : UTF-8
Codec ID : S_TEXT/UTF8
Codec ID/Info : UTF-8 Plain Text
Language : Russian
Default : Yes
Forced : No
Menu
00:00:00.000 : en:Chapter 1
00:05:21.071 : en:Chapter 2
00:09:53.802 : en:Chapter 3
00:14:18.107 : en:Chapter 4
00:19:39.678 : en:Chapter 5

_________________
Показать сообщения:    

Текущее время: Сегодня 09:31

Часовой пояс: GMT



Вы не можете начинать темы
Вы не можете отвечать на сообщения
Вы не можете редактировать свои сообщения
Вы не можете удалять свои сообщения
Вы не можете голосовать в опросах
Вы не можете прикреплять файлы к сообщениям
Вы не можете скачивать файлы