Важное объявление!
У Нас Все раздачи мультитрекерные, при нуле пиров в релизах, можете смело вставать на закачку!
 
Автор Сообщение

димитри37

Стаж:
3 года 8 месяцев
Сообщений:
1237

Репутация: 127

[+] [-]
Вне форума [Профиль] [ЛС]

Истребители«Зеро»: Великое воздушное сражение / Zero Fighters: Great Air Battle / Zero faita dai kûsen
Страна: Япония
Жанр: Военный, драма
Год выпуска: 1966
Продолжительность: 01:31:48
Перевод: Одноголосый закадровый den904
Cубтитры: нет
Режиссер: Сиро Моритани / Shirô Moritani
В ролях: Юдзо Каяма, Макото Сайто, Тацуёси Эхара, Ёсио Цутия, Тадао Накамару, Минору Чиаки, Сусуму Фудзита, Акира Кубо, Хироши Татикава, Исао Тамагава
Описание: Гибель адмирала Ямамото в 1943 году, нанесла огромный удар по духу японских войск.
Американские войска успешно наступают в южном районе Тихого океана, захватывая один остров за другим. Отряд пилотов истребителей «Zero», расположенный на одном из островов, выполняет бомбардировки аэродромов и позиций противника, вступая в смертельные схватки с американскими истребителями и бомбардировщиками, пытаясь переломить ход войны… В одном из главных персонажей, явно угадывается знаменитый японский ас Сабуро Сакаи (четвёртый по числу побед японский ас (в Японии не велись личные списки воздушных побед, поэтому принято использование американских подсчётов его побед — 64 сбитых).

Качество видео: DVDRip
Формат видео: AVI
Видео: 704x304 (2.32:1), 23.976 fps, DivX ~1949 kbps avg, 0.38 bit/pixel
Аудио: 48 kHz, AC3 Dolby Digital, 2/0 (L,R) ch, ~192.00 kbps avg

MediaInfo

General
Complete name : E:\Торенты\Rutracker.org\Истребители Зеро Великое воздушное сражение\Istrebiteli.Zero.Velikoe.vozdushnoe.srazhenie.1966.DVDRip.alf62.avi
Format : AVI
Format/Info : Audio Video Interleave
File size : 1.38 GiB
Duration : 1h 31mn
Overall bit rate : 2 151 Kbps
Writing application : VirtualDubMod 1.5.10.3 | www.virtualdub-fr.org || (build 2550/release)
Writing library : VirtualDubMod build 2550/release
Video
ID : 0
Format : MPEG-4 Visual
Format profile : Advanced Simple@L5
Format settings, BVOP : 2
Format settings, QPel : No
Format settings, GMC : No warppoints
Format settings, Matrix : Default (MPEG)
Codec ID : DX50
Codec ID/Hint : DivX 5
Duration : 1h 31mn
Bit rate : 1 950 Kbps
Width : 704 pixels
Height : 304 pixels
Display aspect ratio : 2.35:1
Frame rate : 23.976 fps
Color space : YUV
Chroma subsampling : 4:2:0
Bit depth : 8 bits
Scan type : Progressive
Compression mode : Lossy
Bits/(Pixel*Frame) : 0.380
Stream size : 1.25 GiB (91%)
Writing library : XviD 73
Audio
ID : 1
Format : AC-3
Format/Info : Audio Coding 3
Mode extension : CM (complete main)
Format settings, Endianness : Big
Codec ID : 2000
Duration : 1h 31mn
Bit rate mode : Constant
Bit rate : 192 Kbps
Channel(s) : 2 channels
Channel positions : Front: L R
Sampling rate : 48.0 KHz
Bit depth : 16 bits
Compression mode : Lossy
Stream size : 126 MiB (9%)
Alignment : Split accross interleaves
Interleave, duration : 42 ms (1.00 video frame)
Interleave, preload duration : 500 ms

Скриншот c названием фильма

-Источник:
Показать сообщения:    

Текущее время: Сегодня 17:46

Часовой пояс: GMT



Вы не можете начинать темы
Вы не можете отвечать на сообщения
Вы не можете редактировать свои сообщения
Вы не можете удалять свои сообщения
Вы не можете голосовать в опросах
Вы не можете прикреплять файлы к сообщениям
Вы не можете скачивать файлы