Важное объявление!
У Нас Все раздачи мультитрекерные, при нуле пиров в релизах, можете смело вставать на закачку!
 
Автор Сообщение

HUNTER

Стаж:
4 года 4 месяца
Сообщений:
56722

Репутация: 101

[+] [-]
Вне форума [Профиль] [ЛС]

История британской науки / Science Britannica-
Год выпуска: 2013
Страна: UK | Великобритания
Студия : BBC
Жанр: документальный
Продолжительность: 1 х 00:59:00
Перевод: Профессиональный (двуголосый закадровый) | «Омикрон»
Русские субтитры: нет
Описание: Профессор Брайан Кокс проведет зрителей сквозь 350 лет британской науки, чтобы показать что такое наука, что за люди ее практикуют, и как она неразрывно связана с прошлым, настоящим и будущим всех и каждого из нас.
Доп. информация: раздача будет обновляться по мере выхода новых серий
Sample
IMDb 8.2/10 (66)
Качество: HDTVRip [рип с 1080i]
Формат: AVI
Видеокодек: XVID
Аудиокодек: AC3
Видео: MPEG-4 Visual (XviD), 720 х 400 (16:9), 25,000 fps, 1516 kbps, 0.211 bit/px
Аудио: AC3, 48,0 КГц, 192 kbps, 16 bit, 2 ch

Список выпусков/серий

01_Frankenstein's Monsters_(Монстры Франкенштейна)
02_Method and Madness_(Метод и безумие)
03_Clear Blue Skies_(Чистое голубое небо)

MediaInfo

01_Frankenstein's Monsters_(Монстры Франкенштейна)
Общее
Полное имя : G:\Video\Science Britannica\01_Frankenstein's Monsters_(Монстры Франкенштейна).avi
Формат : AVI
Формат/Информация : Audio Video Interleave
Размер файла : 720 Мбайт
Продолжительность : 58 м.
Общий поток : 1718 Кбит/сек
Программа кодирования : VirtualDubMod 1.5.10.3 | www.virtualdub-fr.org || (build 2550/release)
Библиотека кодирования : VirtualDubMod build 2550/release
Видео
Идентификатор : 0
Формат : MPEG-4 Visual
Профиль формата : Advanced Simple@L5
Параметр BVOP формата : 1
Параметр QPel формата : Нет
Параметр GMC формата : Без точки перехода
Параметр матрицы формата : Default (H.263)
Идентификатор кодека : XVID
Идентификатор кодека/Подсказка : XviD
Продолжительность : 58 м.
Битрейт : 1516 Кбит/сек
Ширина : 720 пикселей
Высота : 400 пикселей
Соотношение сторон : 16:9
Частота кадров : 25,000 кадров/сек
Цветовое пространство : YUV
Субдискретизация насыщенности : 4:2:0
Битовая глубина : 8 бит
Тип развёртки : Прогрессивная
Метод сжатия : С потерями
Бит/(Пиксели*Кадры) : 0.211
Размер потока : 635 Мбайт (88%)
Библиотека кодирования : XviD 1.2.1 (UTC 2008-12-04)
Аудио
Идентификатор : 1
Формат : AC-3
Формат/Информация : Audio Coding 3
Расширение режима : CM (complete main)
Параметр Endianness формата : Big
Идентификатор кодека : 2000
Продолжительность : 58 м.
Вид битрейта : Постоянный
Битрейт : 192 Кбит/сек
Каналы : 2 канала
Расположение каналов : Front: L R
Частота : 48,0 КГц
Битовая глубина : 16 бит
Метод сжатия : С потерями
Размер потока : 80,5 Мбайт (11%)
Выравнивание : Разделение по промежуткам
Продолжительность промежутка : 40 мс. (1,00 видеокадр)
Время предзагрузки промежутка : 500 мс.

Скриншоты

Благодарность спонсорам перевода с HDclub

terminal, RomanTar
Торрент будет обновляться по мере выхода новых серий!

_________________
Показать сообщения:    

Текущее время: Сегодня 14:06

Часовой пояс: GMT



Вы не можете начинать темы
Вы не можете отвечать на сообщения
Вы не можете редактировать свои сообщения
Вы не можете удалять свои сообщения
Вы не можете голосовать в опросах
Вы не можете прикреплять файлы к сообщениям
Вы не можете скачивать файлы