Важное объявление!
У Нас Все раздачи мультитрекерные, при нуле пиров в релизах, можете смело вставать на закачку!
 
Автор Сообщение

HUNTER

Стаж:
4 года 4 месяца
Сообщений:
56798

Репутация: 101

[+] [-]
Вне форума [Профиль] [ЛС]

История Бенни Гудмена / The Benny Goodman Story-
Год выпуска: 1956
Страна: США
Жанр: драма, биография, музыка
Продолжительность: 01:56:23
Перевод: Субтитры
Оригинальная аудиодорожка: Английская
Cубтитры: Русские (Vadmamed), английские-Режиссер: Валентайн Дейвис / Valentine Davies
В ролях: Стив Аллен, Донна Рид, Берта Герстен, Херберт Андерсон, Хи Эвербэк, Тедди Уилсон, Лайонел Хэмптон, Джин Крупа, Эдвард «Кид» Ори-Описание:
Биографическая картина о творческом пути «Короля свинга» – кларнетиста Бенни Гудмена. История начинается с его ранних лет, когда он пробовал себя, играя в диксилендах на пароходах, а финал фильма – сенсационный концерт оркестра Гудмена в Карнеги Холле в 1938 году, когда впервые в истории этого концертного зала там звучала не классическая музыка.
Другая сюжетная линия – развитие романтических отношений Гудмена, выходца из бедной еврейской семьи, с девушкой из высшего общества, «музыкальным снобом» Алис Хэммонд.
Особенно следует отметить, что все музыкальные номера в фильме исполнены самим оркестром, а партии кларнета записал сам Бенни Гудмен. (Vadmamed)- | IMDb | Сэмпл-Качество: BDRip 720p (DON)
Контейнер: MKV
Видео: x264, 1280x690 (1.85:1), 24 fps, 7000 kbps
Аудио: Английский AC3 2.0, 48 kHz, 640 kbps
Формат субтитров: softsub (SRT)

MI

nfo
The Benny Goodman Story (1956)
Technical information
RUNTIME........: 1h 56mn
SIZE...........: 6.21 GiB
VIDEO CODEC....: x264 r2431,2-Pass, L4.1, DXVA
BITRATE........: 7 000 Kbps
RESOLUTION.....: 1280x690
FRAMERATE......: 24 fps
AUDIO..........: English AC3 DD2.0 @ 640 Kbps
SUBTITLES......: English (srt)
CHAPTERS.......: Yes
SOURCE.........: The Benny Goodman Story 1956 1080p GER Blu-ray AVC DTS-HD MA 2.0-iFPD Thanks
RELEASE DATE...: 10/10/2014
x264 INFO
x264 [info]: profile High, level 4.1
x264 [info]: frame I:954 Avg QP:19.76 size:117173
x264 [info]: frame P:29975 Avg QP:22.62 size: 52015
x264 [info]: frame B:136679 Avg QP:23.29 size: 32483
x264 [info]: consecutive B-frames: 0.8% 0.8% 2.2% 14.8% 14.9% 32.5% 15.4% 14.2% 3.0% 1.5%
encoded 167608 frames, 7.346 fps, 6999.97 kb/s, 5827.6 MB
General
Unique ID : 246244950818845636215635876909881126318 (0xB9410D6CF1E6E8379C4CF0501DD26DAE)
Complete name : The.Benny.Goodman.Story.1956.720p.BluRay.DD2.0.x264-DON.mkv
Format : Matroska
Format version : Version 2
File size : 6.21 GiB
Duration : 1h 56mn
Overall bit rate : 7 642 Kbps
Movie name : The Benny Goodman Story / История Бенни Гудмена (1956) – RuTracker
Encoded date : UTC 2014-09-23 19:39:25
Writing application : mkvmerge v7.0.0 ('Where We Going') 64bit built on Jun 9 2014 15:16:27
Writing library : libebml v1.3.0 + libmatroska v1.4.1
Attachment : Yes
Video
ID : 1
Format : AVC
Format/Info : Advanced Video Codec
Format profile : High@L4.1
Format settings, CABAC : Yes
Format settings, ReFrames : 9 frames
Codec ID : V_MPEG4/ISO/AVC
Duration : 1h 56mn
Bit rate : 7 000 Kbps
Width : 1 280 pixels
Height : 690 pixels
Display aspect ratio : 1.85:1
Frame rate mode : Constant
Frame rate : 24.000 fps
Color space : YUV
Chroma subsampling : 4:2:0
Bit depth : 8 bits
Scan type : Progressive
Bits/(Pixel*Frame) : 0.330
Stream size : 5.57 GiB (90%)
Title : The.Benny.Goodman.Story.1956.720p.GER.BluRay.DD2.0.x264-DON
Writing library : x264 core 142 r2431+42 c69a006 tMod [8-bit@all X86_64]
Encoding settings : cabac=1 / ref=9 / deblock=1:-3:-3 / analyse=0x3:0x133 / me=umh / subme=11 / psy=1 / fade_compensate=0.00 / psy_rd=0.70:0.00 / mixed_ref=1 / me_range=32 / chroma_me=1 / trellis=2 / 8x8dct=1 / cqm=0 / deadzone=21,11 / fast_pskip=0 / chroma_qp_offset=-2 / threads=12 / lookahead_threads=2 / sliced_threads=0 / nr=0 / decimate=0 / interlaced=0 / bluray_compat=0 / constrained_intra=0 / fgo=0 / bframes=9 / b_pyramid=2 / b_adapt=2 / b_bias=0 / direct=3 / weightb=1 / open_gop=0 / weightp=2 / keyint=250 / keyint_min=24 / scenecut=40 / intra_refresh=0 / rc_lookahead=250 / rc=2pass / mbtree=0 / bitrate=7000 / ratetol=1.0 / qcomp=0.65 / qpmin=0:0:0 / qpmax=69:69:69 / qpstep=4 / cplxblur=20.0 / qblur=0.5 / vbv_maxrate=38000 / vbv_bufsize=30000 / nal_hrd=none / filler=0 / ip_ratio=1.40 / pb_ratio=1.10 / aq=4:0.60 / aq-sensitivity=10.00 / aq-factor=1.00:1.00:1.00 / aq2=0 / aq3=0
Language : English
Default : Yes
Forced : No
Audio
ID : 2
Format : AC-3
Format/Info : Audio Coding 3
Mode extension : CM (complete main)
Format settings, Endianness : Big
Codec ID : A_AC3
Duration : 1h 56mn
Bit rate mode : Constant
Bit rate : 640 Kbps
Channel(s) : 2 channels
Channel positions : Front: L R
Sampling rate : 48.0 KHz
Bit depth : 16 bits
Compression mode : Lossy
Stream size : 533 MiB (8%)
Title : Original
Language : English
Default : Yes
Forced : No
Text #1
ID : 3
Format : UTF-8
Codec ID : S_TEXT/UTF8
Codec ID/Info : UTF-8 Plain Text
Title : Vadmamed
Language : Russian
Default : Yes
Forced : No
Text #2
ID : 4
Format : UTF-8
Codec ID : S_TEXT/UTF8
Codec ID/Info : UTF-8 Plain Text
Language : English
Default : No
Forced : No
Menu
00:00:00.000 : en:Chapter 01
00:09:25.000 : en:Chapter 02
00:18:58.291 : en:Chapter 03
00:29:33.041 : en:Chapter 04
00:38:55.291 : en:Chapter 05
00:49:23.458 : en:Chapter 06
01:00:38.916 : en:Chapter 07
01:09:59.250 : en:Chapter 08
01:20:02.750 : en:Chapter 09
01:29:28.500 : en:Chapter 10
01:37:02.750 : en:Chapter 11
01:45:23.750 : en:Chapter 12

_________________
Показать сообщения:    

Текущее время: Сегодня 01:07

Часовой пояс: GMT



Вы не можете начинать темы
Вы не можете отвечать на сообщения
Вы не можете редактировать свои сообщения
Вы не можете удалять свои сообщения
Вы не можете голосовать в опросах
Вы не можете прикреплять файлы к сообщениям
Вы не можете скачивать файлы