Важное объявление!
У Нас Все раздачи мультитрекерные, при нуле пиров в релизах, можете смело вставать на закачку!
 
Автор Сообщение

димитри37

Стаж:
3 года 8 месяцев
Сообщений:
1237

Репутация: 127

[+] [-]
Вне форума [Профиль] [ЛС]

История Аси Клячиной, которая любила,
да не вышла замуж / Асино счастье
-
Жанр: драма
Год выпуска: 1966-1987
Продолжительность: 01:33:34
Режиссёр: Андрей Кончаловский
В ролях: Ия Саввина, Любовь Соколова, Александр Сурин, Геннадий Егорычев, Михаил Кислов, Назар Назаров, Борис Парфёнов, Наталья Серова, Е.Ассесорова, Владимир Крылов, Федор Родионычев, Коля Погодин, Л.Зайцева, С.Парфенов, И.Петров
Описание: История любви скромной колхозницы Аси-хромоножки к непутевому шоферу, разгильдяю Степану. Несмотря на то, что парень не хочет жениться, она решается родить от него ребенка…-Доп. информация:
Автор сценария: Юрий Клепиков
Оператор: Георгий Рерберг
Художник: Михаил Ромадин
Премьера: 23 сентября 1988
Награды: главный приз ВКФ в Баку (1988); приз "Ника" за лучшую режиссерскую работу (1988); специальный приз итальянского проката на МКФ в Пезаро (1988); премия Фипресси для внеконкурсных фильмов на МКФ в Западном Берлине (1988)-Рейтинг:

Качество видео: DVDRip-AVC
Формат видео: MKV
Видео: AVC x264, 720x576@768x576 (4:3), 25 fps, 2205 Kbps
Аудио: AC3, 48 KHz, 448 Kbps, 6 ch

Интересные факты

* Сценарий фильма был написан начинающим сценаристом Юрием Клепиковым. Кончаловский изначально отказался от приглашения на главные роли известных актёров и решил снимать фильм в глубинке (село Безводное Горьковской области). На главную роль была приглашена Ия Саввина, помимо неё в картине заняты только одна профессиональная актриса (Любовь Соколова) и режиссёр Александр Сурин. Все прочие роли сыграны непрофессионалами, главным образом жителями деревни.
* В фильме присутствуют полудокументальные кадры, в частности, монологи сельских жителей с рассказами о своей жизни (на фронте, в лагерях и пр.). Их снимали двумя или тремя камерами с синхронной записью звука.
* Фильм в 1967 году был показан под названием «Асино счастье», однако в широкий прокат не вышел и лёг на полку. В 1987 году состоялась его вторая премьера (после восстановления).
* В 1994 году Кончаловский снял фильм «Курочка Ряба» - своеобразное продолжение истории про Асю Клячину через 25 лет. Ия Саввина отказалась сыграть в фильме, сочтя сценарий оскорбительным для русского народа. Роль Аси сыграла Инна Чурикова. В этом фильме снялись также многие из тех, кто был показан в фильме 1967 года.
-

MediaInfo

General
Unique ID : 196150124846238623740033678579691894516 (0x939123D0BA0884A5A8F4561B658336F4)
Complete name : D:\Video\Asya.Klyachina\Asya.Klyachina.mkv
Format : Matroska
Format version : Version 4 / Version 2
File size : 1.77 GiB
Duration : 1h 33mn
Overall bit rate : 2 707 Kbps
Encoded date : UTC 2010-02-22 21:41:31
Writing application : mkvmerge v5.9.0 ('On The Loose') built on Dec 9 2012 15:37:01
Writing library : libebml v1.3.0 + libmatroska v1.4.0
Video #1
ID : 1
Format : AVC
Format/Info : Advanced Video Codec
Format profile : High@L4.1
Format settings, CABAC : Yes
Format settings, ReFrames : 8 frames
Codec ID : V_MPEG4/ISO/AVC
Duration : 1h 33mn
Bit rate : 2 205 Kbps
Width : 720 pixels
Height : 576 pixels
Display aspect ratio : 4:3
Frame rate mode : Constant
Frame rate : 25.000 fps
Standard : PAL
Color space : YUV
Chroma subsampling : 4:2:0
Bit depth : 8 bits
Scan type : Progressive
Bits/(Pixel*Frame) : 0.213
Stream size : 1.44 GiB (81%)
Title : Видео
Writing library : x264 core 129 r2230 1cffe9f
Encoding settings : cabac=1 / ref=8 / deblock=1:-1:-1 / analyse=0x3:0x133 / me=umh / subme=9 / psy=1 / psy_rd=1.00:0.15 / mixed_ref=1 / me_range=16 / chroma_me=1 / trellis=2 / 8x8dct=1 / cqm=0 / deadzone=21,11 / fast_pskip=0 / chroma_qp_offset=-3 / threads=12 / lookahead_threads=2 / sliced_threads=0 / nr=0 / decimate=1 / interlaced=0 / bluray_compat=0 / constrained_intra=0 / bframes=16 / b_pyramid=2 / b_adapt=2 / b_bias=0 / direct=3 / weightb=1 / open_gop=0 / weightp=2 / keyint=250 / keyint_min=25 / scenecut=40 / intra_refresh=0 / rc_lookahead=60 / rc=crf / mbtree=1 / crf=19.5 / qcomp=0.70 / qpmin=0 / qpmax=69 / qpstep=4 / ip_ratio=1.40 / aq=1:1.00
Language : Russian
Default : Yes
Forced : No
Audio #2
ID : 2
Format : AC-3
Format/Info : Audio Coding 3
Mode extension : CM (complete main)
Format settings, Endianness : Big
Codec ID : A_AC3
Duration : 1h 33mn
Bit rate mode : Constant
Bit rate : 448 Kbps
Channel(s) : 6 channels
Channel positions : Front: L C R, Side: L R, LFE
Sampling rate : 48.0 KHz
Bit depth : 16 bits
Compression mode : Lossy
Delay relative to video : 70ms
Stream size : 300 MiB (17%)
Title : Русский
Language : Russian
Default : Yes
Forced : No
-

Скриншоты


-
Показать сообщения:    

Текущее время: Сегодня 11:38

Часовой пояс: GMT



Вы не можете начинать темы
Вы не можете отвечать на сообщения
Вы не можете редактировать свои сообщения
Вы не можете удалять свои сообщения
Вы не можете голосовать в опросах
Вы не можете прикреплять файлы к сообщениям
Вы не можете скачивать файлы