Важное объявление!
У Нас Все раздачи мультитрекерные, при нуле пиров в релизах, можете смело вставать на закачку!
 
Автор Сообщение

HUNTER

Стаж:
4 года 4 месяца
Сообщений:
56853

Репутация: 101

[+] [-]
Вне форума [Профиль] [ЛС]

Истинный цвет / Local Color / Die Farben des Herbstes
«Sometimes you have to take a few steps back to get the big picture»
-
Страна: США
Студия: Alla Prima Productions, Brushwork Pictures
Жанр: драма
Год выпуска: 2006
Продолжительность: 01:47:19
Перевод: Одноголосый закадровый (Дмитрий Стасюк)
Cубтитры: немецкие
Оригинальная аудиодорожка: английская
Режиссер: Джордж Галло / George Gallo
В ролях: Армин Мюллер-Шталь (Nicholi Seroff), Тревор Морган (John Talia Jr.), Рэй Лиотта (John Talia Sr.), Чарльз Дёрнинг (Yammi), Саманта Мэтис (Carla), Рон Перлман (Curtis Sunday), Дайана Скаруид (Edith Talia), Джули Лотт (Sandra Sunday), Том Адамс (Grey Artist), Melissa Allman (Gallery Girl), Нэнси Кейсмор (Mrs. Huntington-Quail), Майкл Негрин (John (50 years old)), Тасо Пападакис (Mechanized Artist), Дэвид Шефталл (Mikey), Дэвид Сосна (Mr. Ross), Тим Веласкез (No Good Teenager), Рэймонд Лапино (Art Collector), Синтия ЛеБланк (Art Collector), Элтон ЛеБланк (Art Collector), Картер Митчелл (Art School Student)
Описание: Успешный художник с любовью вспоминает лето 1974 года, определившее его жизнь. Талантливый, но испытывающий затруднения восемнадцатилетний молодой художник устанавливает дружеские отношения со страдающим алкоголизмом гениальным художником преклонного возраста, которого он возвращает не только к искусству, но и к жизни. Два человека, которые оказываются в начале непрочных взаимоотношений. Юноша хочет научиться всем секретам, которые мастер запер в своей голове и своем сердце. Время не было благосклонно к старому мастеру. Для него в жизни не было смысла пока парень вновь не зажег огонь его интереса к работе и, в конечном счете, дал ему волю к жизни. Вместе они дали друг другу бесценный дар. Юноша учится видеть мир глазами мастера. А мастер заново учится видеть мир глазами невинности. Эта история основана на реальном жизненном опыте.

Тип релиза: BDRip 720p [CtrlHD]
Контейнер: MKV
Видео: 1280x536 (2,40:1), 23,976 fps, x264 ~7295 kbps avg, 0.443 bit/pixel
Аудио 1: 48 kHz, AC3 Dolby Digital, 3/2 (L,C,R,l,r) + LFE ch, 448 kbps (русская)
Аудио 2: 48 kHz, AC3 Dolby Digital, 3/2 (L,C,R,l,r) + LFE ch, 640 kbps (английская)
Формат субтитров: softsub (SRT)
Чаптеры: есть

рейтинг MPAA: лицам до 17 лет обязательно присутствие взрослого

MediaInfo

ОбщееУникальный идентификатор : 186387659570944138846156486165542718052 (0x8C38F51D9E5AC3A1AE8F3D52D427CA64)Полное имя : \Local.Color.2006.BluRay.720p.AC3.x264.mkvФормат : MatroskaВерсия формата : Version 4 / Version 2Размер файла : 6,41 ГбайтПродолжительность : 1 ч. 47 м.Общий поток : 8553 Кбит/секДата кодирования : UTC 2014-10-31 17:20:00Программа кодирования : mkvmerge v7.3.0 ('Nouages') 64bit built on Oct 22 2014 18:53:34Библиотека кодирования : libebml v1.3.0 + libmatroska v1.4.1
ВидеоИдентификатор : 1Формат : AVCФормат/Информация : Advanced Video CodecПрофиль формата : High@L4.1Параметр CABAC формата : ДаПараметр ReFrames формата : 12 кадровИдентификатор кодека : V_MPEG4/ISO/AVCПродолжительность : 1 ч. 47 м.Битрейт : 7295 Кбит/секШирина : 1280 пикселейВысота : 536 пикселейСоотношение сторон : 2,40:1Режим частоты кадров : ПостоянныйЧастота кадров : 23,976 кадра/секЦветовое пространство : YUVСубдискретизация насыщенности : 4:2:0Битовая глубина : 8 битТип развёртки : ПрогрессивнаяБит/(Пиксели*Кадры) : 0.443Размер потока : 5,47 Гбайт (85%)Заголовок : Local.Color.2006.720p.BluRay.x264-CtrlHDБиблиотека кодирования : x264 core 135 r2345kMod f0c1c53Настройки программы : cabac=1 / ref=12 / deblock=1:-3:-3 / analyse=0x3:0x113 / me=umh / subme=10 / psy=1 / fade_compensate=0.00 / psy_rd=1.05:0.00 / mixed_ref=1me_range=16 / chroma_me=1 / trellis=2 / 8x8dct=1 / cqm=0 / deadzone=21,11 / fast_pskip=0 / chroma_qp_offset=-2 / threads=6 / lookahead_threads=1 / sliced_threads=0 / nr=0decimate=0 / interlaced=0 / bluray_compat=0 / constrained_intra=0 / bframes=6 / b_pyramid=2 / b_adapt=2 / b_bias=0 / direct=3 / weightb=1 / open_gop=0 / weightp=2 / keyint=250keyint_min=23 / scenecut=40 / intra_refresh=0 / rc=crf / mbtree=0 / crf=17.0000 / qcomp=0.80 / qpmin=0 / qpmax=30 / qpstep=4 / ip_ratio=1.20 / pb_ratio=1.10 / aq=1:0.90Язык : EnglishDefault : ДаForced : Нет
Аудио #1Идентификатор : 2Формат : AC-3Формат/Информация : Audio Coding 3Расширение режима : CM (complete main)Параметр Endianness формата : BigИдентификатор кодека : A_AC3Продолжительность : 1 ч. 47 м.Вид битрейта : ПостоянныйБитрейт : 448 Кбит/секКаналы : 6 каналовРасположение каналов : Front: L C R, Side: L R, LFEЧастота : 48,0 КГцБитовая глубина : 16 битМетод сжатия : С потерямиРазмер потока : 344 Мбайт (5%)Заголовок : ac3 5.1 448 kbpsЯзык : RussianDefault : ДаForced : Нет
Аудио #2Идентификатор : 3Формат : AC-3Формат/Информация : Audio Coding 3Расширение режима : CM (complete main)Параметр Endianness формата : BigИдентификатор кодека : A_AC3Продолжительность : 1 ч. 47 м.Вид битрейта : ПостоянныйБитрейт : 640 Кбит/секКаналы : 6 каналовРасположение каналов : Front: L C R, Side: L R, LFEЧастота : 48,0 КГцБитовая глубина : 16 битМетод сжатия : С потерямиРазмер потока : 491 Мбайт (7%)Заголовок : ac3 5.1 640 kbpsЯзык : EnglishDefault : НетForced : Нет
ТекстИдентификатор : 4Формат : UTF-8Идентификатор кодека : S_TEXT/UTF8Идентификатор кодека/Информация : UTF-8 Plain TextЗаголовок : Sub-fullЯзык : GermanDefault : НетForced : Нет
Меню00:00:00.000 : en:Chapter 100:10:12.987 : en:Chapter 200:19:28.834 : en:Chapter 300:27:36.822 : en:Chapter 400:36:17.217 : en:Chapter 500:44:44.891 : en:Chapter 600:51:05.020 : en:Chapter 701:01:01.408 : en:Chapter 801:14:50.903 : en:Chapter 901:24:43.578 : en:Chapter 1001:30:29.883 : en:Chapter 1101:38:56.139 : en:Chapter 12

Видеоряд от CtrlHD

Local.Color.2006.720p.BluRay.x264-CtrlHD ________ ____ ______ / ____/ /______/ / / / / __ \ / / / __/ ___/ / /_/ / / / // /___/ /_/ / / / __ / /_/ /\____/\__/_/ /_/_/ /_/_____/
.PLOTA successful artist looks back with loving memories on thesummer of his defining year, 1974. A talented but troubled18-year-old aspiring artist befriends a brilliant elderlyalcoholic painter who has turned his back on not only artbut life. The two form what appears to be at first a tenuousrelationship. The kid wants to learn all the secrets themaster has locked away inside his head and heart. Time hasnot been kind to the old master. His life appears pointlessto him until the kid rekindles his interest in his work andultimately gives him the will to live. Together, they giveone another a priceless gift. The kid learns to see theworld through the master's eyes. And the master learns tosee life through the eyes of innocence again. This story isbased on a real life experience.
.GENERAL iNFORMATiONRUNTiME.......: 1h:47m:20sSiZE..........: 6.07GBViDEO.CODEC...: x264, CRF17, L4.1FRAMERATE.....: 23.976fpsBiTRATE.......: 7465KbpsRESOLUTiON....: 1280x536AUDiO.........: English DD 5.1 @ 640KbpsSUBTiTLES.....: GermanSUBS.FORMAT...: UTF-8 srtCHAPTERS......: Numbered like on Blu-raySOURCE........: Local Color 2006 1080p GER Blu-ray AVC DTS-HD MA 7.1iMDB.RATiNG...: 6.8/10 (762 votes)iMDB.LiNK.....: http://www.imdb.com/title/tt0472126/
.POST iNFORMATiONENCODER.......: 9mmRELEASE.DATE..: 2013-09-04
.NOTESFixed dirty pixels with overlay.
Remove the ads/tables of image hosts by installingthis GreaseMonkey script: Show Just Image 3http://userscripts.org/scripts/show/109890
.LOGx264 [info]: frame I:1067 Avg QP:15.29 size:108890x264 [info]: frame P:28281 Avg QP:16.70 size: 54952x264 [info]: frame B:125054 Avg QP:17.18 size: 34685x264 [info]: consecutive B-frames: 1.0% 0.9% 2.8% 8.3% 12.0% 59.6% 15.3%x264 [info]: encoded 154402 frames, 6.56 fps, 7463.32 kb/s, duration 6:32:29.94

Скриншоты



_________________
Показать сообщения:    

Текущее время: Сегодня 11:45

Часовой пояс: GMT



Вы не можете начинать темы
Вы не можете отвечать на сообщения
Вы не можете редактировать свои сообщения
Вы не можете удалять свои сообщения
Вы не можете голосовать в опросах
Вы не можете прикреплять файлы к сообщениям
Вы не можете скачивать файлы
Наши партнеры: интернет магазин Ивановского трикотажа textilla.ru