Важное объявление!
У Нас Все раздачи мультитрекерные, при нуле пиров в релизах, можете смело вставать на закачку!
 
Автор Сообщение

HUNTER

Стаж:
4 года 4 месяца
Сообщений:
56822

Репутация: 101

[+] [-]
Вне форума [Профиль] [ЛС]

Исполнитель желаний 4: Пророчество сбылось / Wishmaster 4: The Prophecy Fulfilled
Страна: Канада, США
Студия: Artisan Entertainment и другие.
Жанр: фэнтези, ужасы
Год выпуска: 2002
Продолжительность: 01:31:52
Перевод: Профессиональный (многоголосый закадровый) R5 Twister
Перевод 2: Профессиональный (многоголосый закадровый)
Cубтитры: русские, английские SDH
Оригинальная аудиодорожка: английский
Режиссер: Крис Энджел / Chris Angel
В ролях: Тара Спенсер-Нэйрн, Майкл Трукко, Джейсон Томпсон, Джон Новак, Виктор Уэбстер, Джон Бенжамин Мартин, Кимберли Хюи, Мариам Бернштейн, Мэнди Хохбаум, Дженнифер Пудавик
Описание: Когда самый обыкновенный американский адвокат подарил жене своего лучшего друга антикварную шкатулку, он даже и не подозревал, что тем самым разгневал зловещего Джинна, жаждущего вызволить из глубин ада своих собратьев. Теперь все возможные и невозможные пороки, извращения и страхи вновь вырвались на волю. Никогда еще Зло не было таким соблазнительным, ведь на этот раз у него появилась подружка. Дьяволоподобный Исполнитель Желаний полюбил свою новую прекрасную жертву, которая должна загадать ему три желания. Но если сбудется третье, последнее из ее желаний, свершится древнее пророчество и великий и ужасный Джинн оставит за собой катастрофический след смерти и разрушения...
Доп. информация: Видеоряд позаимствован у пользователя CITROMON1980 с кинозала. В рипе были только MVO и оригинальные сабы. Полностью переделаны английские субтитры - все буквы были заглавными. Оригинальная дорожка и русские сабы взяты с лицензии Twister, вторая многоголоска отсюда.

Sample
Тип релиза: WEB-DL 720p
Контейнер: MKV
Видео: MPEG4 AVC Video, H264, 16:9, 1280x718, 23,976 fps, 3999 kbps
Аудио: Russian (AC3, 6 ch, 448 kbps, 16 bits, 48.0 KHz) - MVO R5
Аудио 2: Russian (AC3, 2 ch, 192 kbps, 16 bits, 48.0 KHz) - MVO
Аудио 3: English (AC3, 6 ch, 448 kbps, 16 bits, 48.0 KHz) - оригинал
Формат субтитров: softsub (SRT)
MediaInfo
General
Unique ID : 212052164678738365652217078325388024642 (0x9F87C2E9521A4CDE9D0E53F488009B42)
Complete name : E:\1\4 часть\Wishmaster 4. The Prophecy Fulfilled (2002).Web-DL.720p.mkv
Format : Matroska
Format version : Version 4 / Version 2
File size : 3.33 GiB
Duration : 1h 31mn
Overall bit rate : 5 190 Kbps
Encoded date : UTC 2014-05-18 17:19:12
Writing application : mkvmerge v6.1.0 ('Old Devil') built on Mar 2 2013 14:32:37
Writing library : libebml v1.3.0 + libmatroska v1.4.0
Video
ID : 1
Format : AVC
Format/Info : Advanced Video Codec
Format profile : High@L3.1
Format settings, CABAC : No
Format settings, ReFrames : 2 frames
Codec ID : V_MPEG4/ISO/AVC
Duration : 1h 31mn
Bit rate : 3 999 Kbps
Width : 1 280 pixels
Height : 718 pixels
Display aspect ratio : 16:9
Frame rate mode : Constant
Frame rate : 23.976 fps
Color space : YUV
Chroma subsampling : 4:2:0
Bit depth : 8 bits
Scan type : Progressive
Bits/(Pixel*Frame) : 0.181
Stream size : 2.57 GiB (77%)
Language : English
Default : Yes
Forced : No
Color primaries : BT.709
Transfer characteristics : BT.709
Matrix coefficients : BT.709
Audio #1
ID : 2
Format : AC-3
Format/Info : Audio Coding 3
Mode extension : CM (complete main)
Format settings, Endianness : Big
Codec ID : A_AC3
Duration : 1h 31mn
Bit rate mode : Constant
Bit rate : 448 Kbps
Channel count : 6 channels
Channel positions : Front: L C R, Side: L R, LFE
Sampling rate : 48.0 KHz
Bit depth : 16 bits
Compression mode : Lossy
Stream size : 294 MiB (9%)
Language : Russian
Default : Yes
Forced : Yes
Audio #2
ID : 3
Format : AC-3
Format/Info : Audio Coding 3
Mode extension : CM (complete main)
Format settings, Endianness : Big
Codec ID : A_AC3
Duration : 1h 31mn
Bit rate mode : Constant
Bit rate : 192 Kbps
Channel count : 2 channels
Channel positions : Front: L R
Sampling rate : 48.0 KHz
Bit depth : 16 bits
Compression mode : Lossy
Stream size : 126 MiB (4%)
Language : Russian
Default : No
Forced : No
Audio #3
ID : 4
Format : AC-3
Format/Info : Audio Coding 3
Mode extension : CM (complete main)
Format settings, Endianness : Big
Codec ID : A_AC3
Duration : 1h 31mn
Bit rate mode : Constant
Bit rate : 448 Kbps
Channel count : 6 channels
Channel positions : Front: L C R, Side: L R, LFE
Sampling rate : 48.0 KHz
Bit depth : 16 bits
Compression mode : Lossy
Stream size : 294 MiB (9%)
Language : English
Default : No
Forced : No
Text #1
ID : 5
Format : UTF-8
Codec ID : S_TEXT/UTF8
Codec ID/Info : UTF-8 Plain Text
Language : Russian
Default : No
Forced : No
Text #2
ID : 6
Format : UTF-8
Codec ID : S_TEXT/UTF8
Codec ID/Info : UTF-8 Plain Text
Language : English
Default : No
Forced : No
Menu
00:00:00.000 : en:Chapter 1
00:04:36.000 : en:Chapter 2
00:15:54.000 : en:Chapter 3
00:26:50.000 : en:Chapter 4
00:37:53.000 : en:Chapter 5
00:48:13.000 : en:Chapter 6
01:00:45.000 : en:Chapter 7
01:13:29.000 : en:Chapter 8
01:28:28.000 : en:Chapter 9
Скриншоты

_________________
Показать сообщения:    

Текущее время: Сегодня 00:53

Часовой пояс: GMT



Вы не можете начинать темы
Вы не можете отвечать на сообщения
Вы не можете редактировать свои сообщения
Вы не можете удалять свои сообщения
Вы не можете голосовать в опросах
Вы не можете прикреплять файлы к сообщениям
Вы не можете скачивать файлы