Важное объявление!
У Нас Все раздачи мультитрекерные, при нуле пиров в релизах, можете смело вставать на закачку!
 
Автор Сообщение

HUNTER

Стаж:
4 года 4 месяца
Сообщений:
56842

Репутация: 101

[+] [-]
Вне форума [Профиль] [ЛС]

Исполнитель желаний 2: Зло никогда не умирает / Wishmaster 2: Evil Never Dies
Страна: США
Студия: Artisan Entertainment
Жанр: фэнтези, ужасы
Год выпуска: 1999
Продолжительность: 01:36:03
Перевод: Профессиональный (многоголосый закадровый) DVD Групп
Перевод 2: Авторский (одноголосый закадровый) Ю. Сербин
Cубтитры: русские, английские SDH
Оригинальная аудиодорожка: английский
Режиссер: Джек Шолдер / Jack Sholder
В ролях: Эндрю Дивофф, Холли Филдс, Пол Йоханссон, Букем Вудбайн, Том ’Тайни’ Листер мл., Крис Вебер, Аль Фостер, Вито Руджинис, Рэнди Холл, Мария Дженнаро
Описание: Во время неудачного ограбления, молодая воровка Моргана выпускает древнего злого Джина. Он садится в тюрьму вместо нее, чтобы выполнять безумные желания заключенных в обмен на их души. А сама Моргана должна загадать лишь три желания, чтобы Джин смог захватить Землю и уничтожить человечество…
Доп. информация: Видеоряд позаимствован у пользователя CITROMON1980 с кинозала. В рипе были только MVO и оригинальные сабы. Полностью переделаны английские субтитры - все буквы были заглавными. Все дорожки и русские сабы бережно выдернуты отсюда.

Sample
Тип релиза: WEB-DL 720p
Контейнер: MKV
Видео: MPEG4 AVC Video, H264, 16:9, 1280x672, 23,976 fps, 3980 kbps
Аудио: Russian (AC3, 6 ch, 448 kbps, 16 bits, 48.0 KHz) - DVD Групп
Аудио 2: Russian (AC3, 2 ch, 192 kbps, 16 bits, 48.0 KHz) - Ю. Сербин
Аудио 3: English (AC3, 6 ch, 448 kbps, 16 bits, 48.0 KHz) - оригинал
Формат субтитров: softsub (SRT)
MediaInfo
General
Unique ID : 196385765308278920271029205570432103845 (0x93BE85C97F6D4A02A39924353AED75A5)
Complete name : E:\1\2 часть\Wishmaster 2. Evil Never Dies (1999).Web-DL.720p.mkv
Format : Matroska
Format version : Version 4 / Version 2
File size : 3.47 GiB
Duration : 1h 36mn
Overall bit rate : 5 171 Kbps
Movie name : Wishmaster 2. Evil Never Dies
Encoded date : UTC 2014-05-14 18:15:53
Writing application : mkvmerge v6.1.0 ('Old Devil') built on Mar 2 2013 14:32:37
Writing library : libebml v1.3.0 + libmatroska v1.4.0
Video
ID : 1
Format : AVC
Format/Info : Advanced Video Codec
Format profile : High@L3.1
Format settings, CABAC : No
Format settings, ReFrames : 2 frames
Codec ID : V_MPEG4/ISO/AVC
Duration : 1h 36mn
Bit rate : 3 980 Kbps
Width : 1 280 pixels
Height : 672 pixels
Display aspect ratio : 1.905
Frame rate mode : Constant
Frame rate : 23.976 fps
Color space : YUV
Chroma subsampling : 4:2:0
Bit depth : 8 bits
Scan type : Progressive
Bits/(Pixel*Frame) : 0.193
Stream size : 2.67 GiB (77%)
Language : English
Default : Yes
Forced : No
Color primaries : BT.709
Transfer characteristics : BT.709
Matrix coefficients : BT.709
Audio #1
ID : 2
Format : AC-3
Format/Info : Audio Coding 3
Mode extension : CM (complete main)
Format settings, Endianness : Big
Codec ID : A_AC3
Duration : 1h 36mn
Bit rate mode : Constant
Bit rate : 448 Kbps
Channel count : 6 channels
Channel positions : Front: L C R, Side: L R, LFE
Sampling rate : 48.0 KHz
Bit depth : 16 bits
Compression mode : Lossy
Stream size : 308 MiB (9%)
Language : Russian
Default : Yes
Forced : No
Audio #2
ID : 3
Format : AC-3
Format/Info : Audio Coding 3
Mode extension : CM (complete main)
Format settings, Endianness : Big
Codec ID : A_AC3
Duration : 1h 36mn
Bit rate mode : Constant
Bit rate : 192 Kbps
Channel count : 2 channels
Channel positions : Front: L R
Sampling rate : 48.0 KHz
Bit depth : 16 bits
Compression mode : Lossy
Stream size : 132 MiB (4%)
Title : Сербин
Language : Russian
Default : No
Forced : No
Audio #3
ID : 4
Format : AC-3
Format/Info : Audio Coding 3
Mode extension : CM (complete main)
Format settings, Endianness : Big
Codec ID : A_AC3
Duration : 1h 36mn
Bit rate mode : Constant
Bit rate : 448 Kbps
Channel count : 6 channels
Channel positions : Front: L C R, Side: L R, LFE
Sampling rate : 48.0 KHz
Bit depth : 16 bits
Compression mode : Lossy
Stream size : 308 MiB (9%)
Language : English
Default : No
Forced : No
Text #1
ID : 5
Format : UTF-8
Codec ID : S_TEXT/UTF8
Codec ID/Info : UTF-8 Plain Text
Language : Russian
Default : No
Forced : No
Text #2
ID : 6
Format : UTF-8
Codec ID : S_TEXT/UTF8
Codec ID/Info : UTF-8 Plain Text
Language : English
Default : No
Forced : No
Menu
00:00:00.000 : en:Chapter 1
00:09:49.000 : en:Chapter 2
00:17:42.000 : en:Chapter 3
00:27:14.000 : en:Chapter 4
00:36:26.000 : en:Chapter 5
00:46:03.000 : en:Chapter 6
00:55:42.000 : en:Chapter 7
01:05:49.000 : en:Chapter 8
01:14:00.000 : en:Chapter 9
01:24:02.000 : en:Chapter 10
01:32:31.000 : en:Chapter 11
Скриншоты

_________________
Показать сообщения:    

Текущее время: Сегодня 15:43

Часовой пояс: GMT



Вы не можете начинать темы
Вы не можете отвечать на сообщения
Вы не можете редактировать свои сообщения
Вы не можете удалять свои сообщения
Вы не можете голосовать в опросах
Вы не можете прикреплять файлы к сообщениям
Вы не можете скачивать файлы