Важное объявление!
У Нас Все раздачи мультитрекерные, при нуле пиров в релизах, можете смело вставать на закачку!
 
Автор Сообщение

HUNTER

Стаж:
4 года 4 месяца
Сообщений:
56842

Репутация: 101

[+] [-]
Вне форума [Профиль] [ЛС]

Искривление времени
Time Warp
-
Год выпуска: 2009
Страна: США
Жанр: Документальный
Продолжительность: 1 x ~ 00:41:00
Перевод: Профессиональный (одноголосый)
Субтитры: Английские-Режиссер: Джеф Либерман-Описание: Благодаря съемкам на высокоскоростные камеры высокой четкости вы увидите движения, которые природа спрятала от наших глаз. Откройте вместе с ведущим Джефом Либерманом альтернативную реальность, где предметы, казавшиеся неподвижными, приобретают завораживающую динамику, а знакомые вещи предстают в самых фантастических очертаниях. В этой реальности воздушный шарик, наполненный водой, лопаясь, выглядит как расцветающий фейерверк, пуля летит медленно и плавно, оставляя за собой шлейф рассекаемого воздуха, а нос боксера под воздействием удара меняет форму, словно сделанный из пластилина.-Качество: BDRip 720p
Формат: MKV
Видео кодек: H.264
Аудио кодек: AC3, MP3
Видео: 1280x720, 29.970 fps, ~7191 kbps
Аудио:
  • MP3, 44.1 kHz, 2.0 ch, ~128.00 kbps Russian
  • AC3, 48.0 kHz, 5.1 ch, ~448.00 kbps English
-

Скриншоты:


Список серий:

    Episode 1:
  • Лезвия и вольты / Blades and Volts
    Episode 2:
  • Рогатки, ракеты и палки / Slings, Rockets and Sticks
    Episode 3:
  • Воздушные подушки, искры, тарзанки и ринги / Air Bags, Sparks, Ropes and Rings
    Episode 4:
  • Металлика / Metallica
    Episode 5:
  • Брызги, автоматы и мотоциклы / Splashes, Guns and Bikes
    Episode 6:
  • Змеи, борцы сумо и попрыгунчики / Snakes, Sumo and Bocks
    Episode 7:
  • Душ, шампунь, бактерии и омлет / Goop, Goo, Glop and Germs
    Episode 8:
  • Стрелы, собаки, силачи и йо-йо / Arrows, Dogs, Strong Men, and Yo-Yos
    Episode 9:
  • Горячие игрушки и холодная сталь / Hot Stuff and Cold Steel
    Episode 10:
  • Лас Вегас / Las Vegas
    Episode 11:
  • Большие кошки и боевые искусства / Big Cats and Mixed Martial Arts
    Episode 12:
  • Американские горки, машинки, чашки и банки / Coasters, Cars, Cups and Cans
    Episode 13:
  • Синие люди, турбина, большой взрыв и по просьбам зрителей / Blue Men, Propellers, Big Bangs and Viewer Requests
    Episode 14:
  • Авария автомобиля, лесорубы и скейтборды / Car-Crushing, Lumberjacks and Skateboards

MI:

Код: copyText_writeLink('this.parentNode.parentNode.nextSibling.nextSibling'); General
Complete name : *\Time.Warp.S02E05.BDRip.720p.Rus.Eng.mkv
Format : Matroska
File size : 2.22 GiB
Duration : 40mn 59s
Overall bit rate : 7 768 Kbps
Movie name : Time Warp S02
Encoded date : UTC 2010-08-26 17:47:23
Writing application : mkvmerge v4.1.0 ('Boiling Point') built on Jul 1 2010 14:37:28
Writing library : libebml v1.0.0 + libmatroska v1.0.0
Video
ID : 1
Format : AVC
Format/Info : Advanced Video Codec
Format profile : [url=mailto:High@L4.1]High@L4.1[/url]
Format settings, CABAC : Yes
Format settings, ReFrames : 5 frames
Muxing mode : Container profile=Unknown@4.1
Codec ID : V_MPEG4/ISO/AVC
Duration : 40mn 59s
Bit rate : 7 191 Kbps
Width : 1 280 pixels
Height : 720 pixels
Display aspect ratio : 16:9
Frame rate : 29.970 fps
Color space : YUV
Chroma subsampling : 4:2:0
Bit depth : 8 bits
Scan type : Progressive
Bits/(Pixel*Frame) : 0.260
Stream size : 2.02 GiB (91%)
Title : E05 - Splashes, Guns and Bikes
Writing library : x264 core 94 r1564 a927654
Encoding settings : cabac=1 / ref=5 / deblock=1:0:0 / analyse=0x3:0x133 / me=umh / subme=7 / psy=1 / psy_rd=1.00:0.00 / mixed_ref=1 / me_range=16 / chroma_me=1 / trellis=1 / 8x8dct=1 / cqm=0 / deadzone=21,11 / fast_pskip=0 / chroma_qp_offset=-2 / threads=12 / sliced_threads=0 / nr=0 / decimate=1 / interlaced=0 / constrained_intra=0 / bframes=3 / b_pyramid=2 / b_adapt=1 / b_bias=0 / direct=1 / wpredb=1 / wpredp=2 / keyint=250 / keyint_min=25 / scenecut=40 / intra_refresh=0 / rc_lookahead=40 / rc=2pass / mbtree=1 / bitrate=7191 / ratetol=1.0 / qcomp=0.60 / qpmin=10 / qpmax=51 / qpstep=4 / cplxblur=20.0 / qblur=0.5 / ip_ratio=1.40 / aq=1:1.00
Audio #1
ID : 2
Format : MPEG Audio
Format version : Version 1
Format profile : Layer 3
Mode : Joint stereo
Mode extension : MS Stereo
Codec ID : A_MPEG/L3
Codec ID/Hint : MP3
Duration : 40mn 59s
Bit rate mode : Constant
Bit rate : 128 Kbps
Channel(s) : 2 channels
Sampling rate : 44.1 KHz
Stream size : 37.5 MiB (2%)
Title : RUS
Language : Russian
Audio #2
ID : 3
Format : AC-3
Format/Info : Audio Coding 3
Mode extension : CM (complete main)
Codec ID : A_AC3
Duration : 40mn 59s
Bit rate mode : Constant
Bit rate : 448 Kbps
Channel(s) : 6 channels
Channel positions : Front: L C R, Side: L R, LFE
Sampling rate : 48.0 KHz
Stream size : 131 MiB (6%)
Title : ENG
Text
ID : 4
Format : UTF-8
Codec ID : S_TEXT/UTF8
Codec ID/Info : UTF-8 Plain Text
Title : ENG

_________________
Показать сообщения:    

Текущее время: Сегодня 16:41

Часовой пояс: GMT



Вы не можете начинать темы
Вы не можете отвечать на сообщения
Вы не можете редактировать свои сообщения
Вы не можете удалять свои сообщения
Вы не можете голосовать в опросах
Вы не можете прикреплять файлы к сообщениям
Вы не можете скачивать файлы
Наши партнеры: интернет магазин Ивановского трикотажа textilla.ru