Важное объявление!
У Нас Все раздачи мультитрекерные, при нуле пиров в релизах, можете смело вставать на закачку!
 
Автор Сообщение

Shalun

Стаж:
4 года 4 месяца
Сообщений:
802

Репутация: 123

[+] [-]
Вне форума [Профиль] [ЛС]

--Искатели могил / Grave Encounters
«В марте 2003 года операторы реалити-шоу снимали сюжет в заброшенной психиатрической больнице, они искали доказательства существования жизни после смерти... и они нашли их»
--
Год выпуска: 2011
Производство: Канада
Жанр: ужасы, триллер
Продолжительность: 01:33:33
Перевод: Профессиональный (многоголосый, закадровый) [Лицензия]
Оригинальный аудиопоток: английский
Субтитры: отсутствуют
Режиссер: Вишес Бразерс / The Vicious Brothers
В ролях
Шон Роджерсон, Хуан Ридингер, Маккензи Грэй, Артур Корбер, Мишель Камминс, Луис Хавьер, Шоун Макдональд, Мервин Мондесер, Боб Рафи
Описание
Участники телевизионного шоу охотников за привидениями «Искатели» во главе с Лэнсом Прэстоном соглашаются провести ночь в психиатрической лечебнице, о которой давно ходят жуткие легенды. Запертые на ночь в большом здании больницы «искатели» быстро обнаружили, что теперь бороться с призраками придется всерьез, а не понарошку, так что дожить до утра у них нет никаких шансов…
Источник/Качество: HDRip-AVC | Сэмпл
Формат: MKV
Видео кодек: H.264
Аудио кодек: AC3
Видео: 1024x576, 24.000 fps, 1787 Kbps, 0.126 bit/pixel
Аудио: 48.0 KHz, 6 ch, 224 Kbps Rus/Eng

Media Info

General
Unique ID : 238698037478097844603375908623974666763 (0xB39391DEB61288489980552E9110120B)
Complete name : K:\zyyx\Grave Encounters.2011.HDRip-AVC.zyyx.mkv
Format : Matroska
Format version : Version 2
File size : 1.46 GiB
Duration : 1h 33mn
Overall bit rate : 2 235 Kbps
Movie name : Grave Encounters 2011 - Release for zyyx
Encoded date : UTC 2012-03-28 21:06:54
Writing application : mkvmerge v5.0.1 ('Es ist Sommer') built on Nov 6 2011 16:23:40
Writing library : libebml v1.2.2 + libmatroska v1.3.0
Video
ID : 1
Format : AVC
Format/Info : Advanced Video Codec
Format profile : [url=mailto:High@L4.1]High@L4.1[/url]
Format settings, CABAC : Yes
Format settings, ReFrames : 16 frames
Muxing mode : Header stripping
Codec ID : V_MPEG4/ISO/AVC
Duration : 1h 33mn
Bit rate : 1 787 Kbps
Width : 1 024 pixels
Height : 576 pixels
Display aspect ratio : 16:9
Frame rate : 24.000 fps
Color space : YUV
Chroma subsampling : 4:2:0
Bit depth : 8 bits
Scan type : Progressive
Bits/(Pixel*Frame) : 0.126
Stream size : 1.14 GiB (78%)
Writing library : x264 core 119 r2106 07efeb4
Default : Yes
Forced : No
Audio #1
ID : 2
Format : AC-3
Format/Info : Audio Coding 3
Mode extension : CM (complete main)
Muxing mode : Header stripping
Codec ID : A_AC3
Duration : 1h 33mn
Bit rate mode : Constant
Bit rate : 224 Kbps
Channel(s) : 6 channels
Channel positions : Front: L C R, Side: L R, LFE
Sampling rate : 48.0 KHz
Bit depth : 16 bits
Compression mode : Lossy
Stream size : 150 MiB (10%)
Default : Yes
Forced : No
Audio #2
ID : 3
Format : AC-3
Format/Info : Audio Coding 3
Mode extension : CM (complete main)
Muxing mode : Header stripping
Codec ID : A_AC3
Duration : 1h 33mn
Bit rate mode : Constant
Bit rate : 224 Kbps
Channel(s) : 6 channels
Channel positions : Front: L C R, Side: L R, LFE
Sampling rate : 48.0 KHz
Bit depth : 16 bits
Compression mode : Lossy
Stream size : 150 MiB (10%)
Default : No
Forced : No

Скриншоты







_________________
Показать сообщения:    

Текущее время: Сегодня 11:35

Часовой пояс: GMT



Вы не можете начинать темы
Вы не можете отвечать на сообщения
Вы не можете редактировать свои сообщения
Вы не можете удалять свои сообщения
Вы не можете голосовать в опросах
Вы не можете прикреплять файлы к сообщениям
Вы не можете скачивать файлы