Важное объявление!
У Нас Все раздачи мультитрекерные, при нуле пиров в релизах, можете смело вставать на закачку!
 
Автор Сообщение

Shalun

Стаж:
4 года 4 месяца
Сообщений:
802

Репутация: 123

[+] [-]
Вне форума [Профиль] [ЛС]

-Ип Ман / Ip Man-
Информация о фильме
Название: Ип Ман
Оригинальное название: Yip Man / Ip Man
Год выхода: 2008
Жанр: Боевик, драма, биография, история
Режиссер: Уилсон Ип
В ролях: Донни Ен, Саймон Ям, Ка Танг Лам, Фан Сю-Вонг, Линн Хунг, Хироюки Икеучи, Ю Син, Чен Зи Хуи, Ю-Нам Вонг, Чжан Бо
О фильме:
Ип Ман — признанный мастер кунг фу, живущий в Фуошане, городе, славном своими школами боевых искусств. Ип Ман практикует Вин Чун и хотя является сильнейшим бойцом города, своей школы у него нет, и он не берет учеников. Дома он проводит лишь легкие спарринги с приятелями, чтобы указать на ошибки друг друга. Проходят годы, Китай захватывают воинственные японцы, и Ип Ман оказывается одним из немногих, кто даже в жесточайших условиях оккупации не забывает о чести, достоинстве и, конечно же, мудрости, которую несет в себе кунг фу.

Страна: Гонконг, Китай
Студия: Mandarin Films Co. Ltd., Beijing ShengShi HuaRei Film Investment & Management Co., China Film Co-Production Corporation
Продолжительность: 01:46:21
Перевод: Авторский (одноголосый, закадровый) Юрий Сербин
Файл
Кодек: x264
Качество: BDRip 1080p (источник: HDCLUB / Blu-ray Remux / 1080p)
Видео: 1920х820 (2.35:1), 10066 Kbps, 24.000 fps, 0.266 bit/pixel
Аудио #1: 48.0 kHz, AC3 Dolby Digital, 3/2 (L,C,R,l,r) + LFE ch, 640 kbps [Авторский, Ю. Сербин]
Аудио #2: 48.0 kHz, AC3 Dolby Digital, 3/2 (L,C,R,l,r) + LFE ch, 384 kbps [Двухголосый, R5 Interfilm] Отдельным файлом
Аудио #3: 48.0 kHz, AC3 Dolby Digital, 2/0 (L,R) ch, 192 kbps [Двухголосый, телеканал НТВ+] Отдельным файлом
Аудио #4: 48.0 kHz, AC3 Dolby Digital, 2/0 (L,R) ch, 192 kbps [Многоголосый, телеканал СТС] Отдельным файлом
Аудио #5: 48.0 kHz, AC3 Dolby Digital, 3/2 (L,C,R,l,r) + LFE ch, 640 kbps [Китайский] Отдельным файлом
Субтитры: Русские, английские
Размер: 7.95 GB
Семпл

Доп. информация: Запись СТС - Slim9174, Запись НТВ+ и синхронизация двух дорог - moon_c@t

x264

x264 [info]: frame I:1335 Avg QP:20.80 size:188531
x264 [info]: frame P:47614 Avg QP:22.89 size: 82856
x264 [info]: frame B:104195 Avg QP:25.05 size: 36742

MediaInfo

General
Unique ID : 179943989433777977312155583597074393319 (0x875FF3A64D0C01BF88E631D0FFFF28E7)
Complete name : E:Ip.Man.Trilogy.2008-2010.x264.BDRip.1080pIp.Man.2008.x264.BDRip.1080pIp.Man.2008.x264.BDRip.1080p.mkv
Format : Matroska
Format version : Version 4 / Version 2
File size : 7.95 GiB
Duration : 1h 46mn
Overall bit rate : 10.7 Mbps
Encoded date : UTC 2013-04-25 18:12:57
Writing application : mkvmerge v6.1.0 ('Old Devil') built on Mar 2 2013 14:32:37
Writing library : libebml v1.3.0 + libmatroska v1.4.0
Video
ID : 1
Format : AVC
Format/Info : Advanced Video Codec
Format profile : High@L4.1
Format settings, CABAC : Yes
Format settings, ReFrames : 5 frames
Codec ID : V_MPEG4/ISO/AVC
Duration : 1h 46mn
Bit rate : 10.1 Mbps
Width : 1 920 pixels
Height : 820 pixels
Display aspect ratio : 2.35:1
Frame rate mode : Constant
Frame rate : 24.000 fps
Color space : YUV
Chroma subsampling : 4:2:0
Bit depth : 8 bits
Scan type : Progressive
Bits/(Pixel*Frame) : 0.266
Stream size : 7.32 GiB (92%)
Writing library : x264 core 130 r2273 b3065e6
Encoding settings : cabac=1 / ref=5 / deblock=1:0:0 / analyse=0x3:0x133 / me=tesa / subme=11 / psy=1 / psy_rd=1.00:0.10 / mixed_ref=1 / me_range=32 / chroma_me=1 / trellis=2 / 8x8dct=1 / cqm=0 / deadzone=21,11 / fast_pskip=0 / chroma_qp_offset=-3 / threads=12 / lookahead_threads=1 / sliced_threads=0 / nr=0 / decimate=0 / interlaced=0 / bluray_compat=0 / constrained_intra=0 / bframes=3 / b_pyramid=2 / b_adapt=2 / b_bias=0 / direct=3 / weightb=1 / open_gop=0 / weightp=2 / keyint=240 / keyint_min=23 / scenecut=40 / intra_refresh=0 / rc_lookahead=60 / rc=2pass / mbtree=1 / bitrate=10066 / ratetol=1.0 / qcomp=0.60 / qpmin=0 / qpmax=69 / qpstep=4 / cplxblur=20.0 / qblur=0.5 / ip_ratio=1.40 / aq=1:1.00
Language : Chinese
Default : Yes
Forced : No
Audio
ID : 2
Format : AC-3
Format/Info : Audio Coding 3
Mode extension : CM (complete main)
Format settings, Endianness : Big
Codec ID : A_AC3
Duration : 1h 46mn
Bit rate mode : Constant
Bit rate : 640 Kbps
Channel(s) : 6 channels
Channel positions : Front: L C R, Side: L R, LFE
Sampling rate : 48.0 KHz
Bit depth : 16 bits
Compression mode : Lossy
Stream size : 487 MiB (6%)
Title : AC3 5.1ch 640 kbps - Авторский, Ю. Сербин
Language : Russian
Default : Yes
Forced : No
Text #1
ID : 3
Format : UTF-8
Codec ID : S_TEXT/UTF8
Codec ID/Info : UTF-8 Plain Text
Title : Русские
Language : Russian
Default : No
Forced : No
Text #2
ID : 4
Format : UTF-8
Codec ID : S_TEXT/UTF8
Codec ID/Info : UTF-8 Plain Text
Title : Английские
Language : English
Default : No
Forced : No
Menu
00:00:00.000 : zh:Chapter 01
00:07:37.375 : zh:Chapter 02
00:14:42.000 : zh:Chapter 03
00:21:25.750 : zh:Chapter 04
00:28:08.541 : zh:Chapter 05
00:34:52.916 : zh:Chapter 06
00:42:25.333 : zh:Chapter 07
00:47:35.000 : zh:Chapter 08
00:56:07.291 : zh:Chapter 09
01:03:31.416 : zh:Chapter 10
01:11:03.207 : zh:Chapter 11
01:18:32.500 : zh:Chapter 12
01:25:53.875 : zh:Chapter 13
01:34:11.416 : zh:Chapter 14
01:41:23.250 : zh:Chapter 15
-Ип Ман 2 / Ip Man 2-
Информация о фильме
Название: Ип Ман 2
Оригинальное название: Yip Man 2 / Ip Man 2
Год выхода: 2010
Жанр: Боевик, биография, история
Режиссер: Уилсон Ип
В ролях: Донни Ен, Линн Хунг, Саймон Ям, Саммо Хунг Кам-Бо, Хуан Сяомин, Фан Сю-Вонг, Кент Чэн, Даррен Шахлави, Брюс Блэйн, Эмбер Чиа
О фильме:
Вторая Мировая война закончилась, но Китай все еще слаб и беден. Ип Ман открывает свою школу боевых искусств, однако завоевать свое место под солнцем оказывается непросто — чтобы избежать проблем, Ип Ману нужно сначала завоевать уважение представителей других кунгфу-школ, а председательствующему в их ассоциации Хунгу Ип Ман не понравился с первого взгляда. А тем временем в Гонконге усиливается присутствие британцев, и некоторые из них плевать хотели на китайские традиции и обычаи.

Страна: Гонконг, Китай
Студия: Mandarin Films Co. Ltd., Beijing Baron Stars Culture Media, Beijing ShengShi HuaRei Film Investment & Management Co.
Продолжительность: 01:47:50
Перевод: Профессиональный (двухголосый, закадровый) BBC Saint-Petersburg
Файл
Кодек: x264
Качество: BDRip 1080p (источник: HDCLUB / Blu-ray Remux / 1080p)
Видео: 1920х816 (2.35:1), 9919 Kbps, 23.976 fps, 0.264 bit/pixel
Аудио #1: 48.0 kHz, AC3 Dolby Digital, 3/2 (L,C,R,l,r) + LFE ch, 640 kbps [Двухголосый, BBC Saint-Petersburg]
Аудио #2: 48.0 kHz, AC3 Dolby Digital, 3/2 (L,C,R,l,r) + LFE ch, 384 kbps [Двухголосый, Кубик в кубе] Отдельным файлом
Аудио #3: 48.0 kHz, AC3 Dolby Digital, 3/2 (L,C,R,l,r) + LFE ch, 640 kbps [Китайский] Отдельным файлом
Субтитры: Русские, английские
Размер: 7.95 GB
Семпл

x264

x264 [info]: frame I:1670 Avg QP:20.51 size:205287
x264 [info]: frame P:51123 Avg QP:23.38 size: 79385
x264 [info]: frame B:102326 Avg QP:24.97 size: 35347

MediaInfo

General
Unique ID : 250222235590809087077797912307847036456 (0xBC3F0CB464B9769FAF1D98F171967E28)
Complete name : E:Ip.Man.Trilogy.2008-2010.x264.BDRip.1080pIp.Man.2.2010.x264.BDRip.1080pIp.Man.2.2010.x264.BDRip.1080p.mkv
Format : Matroska
Format version : Version 4 / Version 2
File size : 7.95 GiB
Duration : 1h 47mn
Overall bit rate : 10.6 Mbps
Encoded date : UTC 2013-04-25 18:24:34
Writing application : mkvmerge v6.1.0 ('Old Devil') built on Mar 2 2013 14:32:37
Writing library : libebml v1.3.0 + libmatroska v1.4.0
Video
ID : 1
Format : AVC
Format/Info : Advanced Video Codec
Format profile : High@L4.1
Format settings, CABAC : Yes
Format settings, ReFrames : 5 frames
Codec ID : V_MPEG4/ISO/AVC
Duration : 1h 47mn
Bit rate : 9 919 Kbps
Width : 1 920 pixels
Height : 816 pixels
Display aspect ratio : 2.35:1
Frame rate mode : Constant
Frame rate : 23.976 fps
Color space : YUV
Chroma subsampling : 4:2:0
Bit depth : 8 bits
Scan type : Progressive
Bits/(Pixel*Frame) : 0.264
Stream size : 7.31 GiB (92%)
Writing library : x264 core 130 r2273 b3065e6
Encoding settings : cabac=1 / ref=5 / deblock=1:0:0 / analyse=0x3:0x133 / me=tesa / subme=11 / psy=1 / psy_rd=1.00:0.10 / mixed_ref=1 / me_range=32 / chroma_me=1 / trellis=2 / 8x8dct=1 / cqm=0 / deadzone=21,11 / fast_pskip=0 / chroma_qp_offset=-3 / threads=12 / lookahead_threads=1 / sliced_threads=0 / nr=0 / decimate=0 / interlaced=0 / bluray_compat=0 / constrained_intra=0 / bframes=3 / b_pyramid=2 / b_adapt=2 / b_bias=0 / direct=3 / weightb=1 / open_gop=0 / weightp=2 / keyint=240 / keyint_min=23 / scenecut=40 / intra_refresh=0 / rc_lookahead=60 / rc=2pass / mbtree=1 / bitrate=9919 / ratetol=1.0 / qcomp=0.60 / qpmin=0 / qpmax=69 / qpstep=4 / cplxblur=20.0 / qblur=0.5 / ip_ratio=1.40 / aq=1:1.00
Language : Chinese
Default : Yes
Forced : No
Audio
ID : 2
Format : AC-3
Format/Info : Audio Coding 3
Mode extension : CM (complete main)
Format settings, Endianness : Big
Codec ID : A_AC3
Duration : 1h 47mn
Bit rate mode : Constant
Bit rate : 640 Kbps
Channel(s) : 6 channels
Channel positions : Front: L C R, Side: L R, LFE
Sampling rate : 48.0 KHz
Bit depth : 16 bits
Compression mode : Lossy
Stream size : 494 MiB (6%)
Title : AC3 5.1ch 640 kbps - Двухголосый, BBC Saint-Petersburg
Language : Russian
Default : Yes
Forced : No
Text #1
ID : 3
Format : UTF-8
Codec ID : S_TEXT/UTF8
Codec ID/Info : UTF-8 Plain Text
Title : Русские
Language : Russian
Default : No
Forced : No
Text #2
ID : 4
Format : UTF-8
Codec ID : S_TEXT/UTF8
Codec ID/Info : UTF-8 Plain Text
Title : Английские
Language : English
Default : No
Forced : No
Menu
00:00:00.000 : zh:
00:05:00.000 : zh:
00:10:00.000 : zh:
00:15:00.000 : zh:
00:20:00.000 : zh:
00:25:00.000 : zh:
00:30:00.000 : zh:
00:35:00.000 : zh:
00:40:00.000 : zh:
00:45:00.000 : zh:
00:50:00.000 : zh:
00:55:00.000 : zh:
01:00:00.000 : zh:
01:05:00.000 : zh:
01:10:00.000 : zh:
01:15:00.000 : zh:
01:20:00.000 : zh:
01:25:00.000 : zh:
01:30:00.000 : zh:
01:35:00.000 : zh:
01:40:00.000 : zh:
01:45:00.000 : zh:
-Ип Ман 3 / Ip Man 3-
Информация о фильме
Название: Ип Ман: Рождение легенды
Оригинальное название: Yip Man chinchyun / The Legend is Born: Ip Man
Год выхода: 2010
Жанр: Боевик, драма, биография, история
Режиссер: Херман Яу
В ролях: Ю-Ханг То, Фан Сю-Вонг, Саммо Хунг Кам-Бо, И Хуан, Роуз Чан, Ип Чун, Хинс Чунг, Вэй Геунг, Чен Зи Хуи, Сует Лам
О фильме:
В детстве Ип Ман вместе со своим братом Е Тяньцы и младшей ученицей Ли Мэйхуэй учился боевым искусствам у известного мастера вин-чун Чэнь Хуашуня в городе Фошань. Спустя несколько лет, мастер Чэнь Хуашунь умер, и Ип Ман продолжил обучение у старшего ученика Чэнь Хуашуня — Чжунсу. Затем Ип Ман отправился в Гонконг, чтобы продолжить обучение боевым искусствам, расставшись с Е Тяньцы, Ли Мэйхуэй и другими учениками. Во время обучения в Гонконге, Ип Ман часто сталкивался с оскорблениями и дискриминацией со стороны иностранцев…

Страна: Гонконг
Студия: National Arts Films Production Limited, Zhejlang Hengdian World Studios Co. Ltd.
Продолжительность: 01:39:42
Перевод: Профессиональный (двухголосый, закадровый) телеканал НТВ+ + Профессиональный (одноголосый, закадровый) CinemaSET + Оригинал
Файл
Кодек: x264
Качество: BDRip 1080p (источник: BLUEBIRD / Blu-ray Disc / 1080p)
Видео: 1920х816 (2.35:1), 9755 Kbps, 24.000 fps, 0.259 bit/pixel
Аудио #1: 48.0 kHz, AC3 Dolby Digital, 3/2 (L,C,R,l,r) + LFE ch, 384 kbps [Двухголосый, телеканал НТВ+]
Аудио #2: 48.0 kHz, AC3 Dolby Digital, 3/2 (L,C,R,l,r) + LFE ch, 640 kbps [Одноголосый, CinemaSET]
Аудио #3: 48.0 kHz, AC3 Dolby Digital, 3/2 (L,C,R,l,r) + LFE ch, 640 kbps [Китайский]
Субтитры: Русские, английские
Размер: 7.95 GB
Семпл

x264

x264 [info]: frame I:1557 Avg QP:13.47 size:186317
x264 [info]: frame P:48971 Avg QP:16.23 size: 77265
x264 [info]: frame B:93049 Avg QP:17.20 size: 34599

MediaInfo

General
Unique ID : 212050769829272849385786061743266187363 (0x9F877E23D866FEC9933FE7F848EBC863)
Complete name : E:Ip.Man.Trilogy.2008-2010.x264.BDRip.1080pThe.Legend.is.Born.Ip.Man.2010.x264.BDRip.1080p.mkv
Format : Matroska
Format version : Version 4 / Version 2
File size : 7.95 GiB
Duration : 1h 39mn
Overall bit rate : 11.4 Mbps
Encoded date : UTC 2013-04-25 18:36:15
Writing application : mkvmerge v6.1.0 ('Old Devil') built on Mar 2 2013 14:32:37
Writing library : libebml v1.3.0 + libmatroska v1.4.0
Video
ID : 1
Format : AVC
Format/Info : Advanced Video Codec
Format profile : High@L4.1
Format settings, CABAC : Yes
Format settings, ReFrames : 5 frames
Codec ID : V_MPEG4/ISO/AVC
Duration : 1h 39mn
Bit rate : 9 755 Kbps
Width : 1 920 pixels
Height : 816 pixels
Display aspect ratio : 2.35:1
Frame rate mode : Constant
Frame rate : 24.000 fps
Color space : YUV
Chroma subsampling : 4:2:0
Bit depth : 8 bits
Scan type : Progressive
Bits/(Pixel*Frame) : 0.259
Stream size : 6.64 GiB (83%)
Writing library : x264 core 130 r2273 b3065e6
Encoding settings : cabac=1 / ref=5 / deblock=1:-3:-3 / analyse=0x3:0x133 / me=tesa / subme=11 / psy=1 / psy_rd=1.00:0.10 / mixed_ref=1 / me_range=32 / chroma_me=1 / trellis=2 / 8x8dct=1 / cqm=0 / deadzone=21,11 / fast_pskip=0 / chroma_qp_offset=-3 / threads=12 / lookahead_threads=1 / sliced_threads=0 / nr=0 / decimate=0 / interlaced=0 / bluray_compat=0 / constrained_intra=0 / bframes=3 / b_pyramid=2 / b_adapt=2 / b_bias=0 / direct=3 / weightb=1 / open_gop=0 / weightp=2 / keyint=240 / keyint_min=23 / scenecut=40 / intra_refresh=0 / rc_lookahead=60 / rc=2pass / mbtree=1 / bitrate=9755 / ratetol=1.0 / qcomp=0.60 / qpmin=0 / qpmax=69 / qpstep=4 / cplxblur=20.0 / qblur=0.5 / ip_ratio=1.40 / aq=1:1.00
Language : Chinese
Default : Yes
Forced : No
Audio #1
ID : 2
Format : AC-3
Format/Info : Audio Coding 3
Mode extension : CM (complete main)
Format settings, Endianness : Big
Codec ID : A_AC3
Duration : 1h 39mn
Bit rate mode : Constant
Bit rate : 384 Kbps
Channel(s) : 6 channels
Channel positions : Front: L C R, Side: L R, LFE
Sampling rate : 48.0 KHz
Bit depth : 16 bits
Compression mode : Lossy
Stream size : 274 MiB (3%)
Title : AC3 5.1ch 384 kbps - Двухголосый, телеканал НТВ+
Language : Russian
Default : Yes
Forced : No
Audio #2
ID : 3
Format : AC-3
Format/Info : Audio Coding 3
Mode extension : CM (complete main)
Format settings, Endianness : Big
Codec ID : A_AC3
Duration : 1h 39mn
Bit rate mode : Constant
Bit rate : 640 Kbps
Channel(s) : 6 channels
Channel positions : Front: L C R, Side: L R, LFE
Sampling rate : 48.0 KHz
Bit depth : 16 bits
Compression mode : Lossy
Stream size : 456 MiB (6%)
Title : AC3 5.1ch 640 kbps - Одноголосый, CinemaSET
Language : Russian
Default : No
Forced : No
Audio #3
ID : 4
Format : AC-3
Format/Info : Audio Coding 3
Mode extension : CM (complete main)
Format settings, Endianness : Big
Codec ID : A_AC3
Duration : 1h 39mn
Bit rate mode : Constant
Bit rate : 640 Kbps
Channel(s) : 6 channels
Channel positions : Front: L C R, Side: L R, LFE
Sampling rate : 48.0 KHz
Bit depth : 16 bits
Compression mode : Lossy
Stream size : 456 MiB (6%)
Title : AC3 5.1ch 640 kbps - Китайский
Language : Chinese
Default : No
Forced : No
Text #1
ID : 5
Format : UTF-8
Codec ID : S_TEXT/UTF8
Codec ID/Info : UTF-8 Plain Text
Title : Русские
Language : Russian
Default : No
Forced : No
Text #2
ID : 6
Format : UTF-8
Codec ID : S_TEXT/UTF8
Codec ID/Info : UTF-8 Plain Text
Title : Английские
Language : English
Default : No
Forced : No
Menu
00:00:00.000 : zh:
00:04:54.708 : zh:
00:13:46.750 : zh:
00:18:55.833 : zh:
00:24:47.791 : zh:
00:29:25.000 : zh:
00:36:14.250 : zh:
00:42:50.708 : zh:
00:47:42.958 : zh:
00:53:11.916 : zh:
01:01:54.125 : zh:
01:09:24.208 : zh:
01:20:12.291 : zh:
01:25:09.125 : zh:
01:32:36.708 : zh:
-

_________________
Показать сообщения:    

Текущее время: Сегодня 09:20

Часовой пояс: GMT



Вы не можете начинать темы
Вы не можете отвечать на сообщения
Вы не можете редактировать свои сообщения
Вы не можете удалять свои сообщения
Вы не можете голосовать в опросах
Вы не можете прикреплять файлы к сообщениям
Вы не можете скачивать файлы
Наши партнеры: интернет магазин Ивановского трикотажа textilla.ru