Важное объявление!
У Нас Все раздачи мультитрекерные, при нуле пиров в релизах, можете смело вставать на закачку!
 
Автор Сообщение

HUNTER

Стаж:
4 года 4 месяца
Сообщений:
56772

Репутация: 101

[+] [-]
Вне форума [Профиль] [ЛС]

Инструкции не прилагаются / Возврату не подлежит / No se Aceptan Devoluciones / Instructions Not Included
Страна: Мексика
Жанр: драма, комедия
Год выпуска: 2013
Продолжительность: 02:01:57
Перевод: Михаил Васильев. Одноголосый закадровый текст: Алексей "Doctor Joker" Матвеев
Cубтитры: русские, английские
Оригинальная аудиодорожка: испанский
Режиссер: Эухенио Дербес / Eugenio Derbez
В ролях: Эухенио Дербес, Джессика Линдси, Дэниэль Раймонт, Лорето Пералта
Описание: Жизнь плейбоя Валентина из Акапулько резко меняется, когда на пороге его дома появляется женщина с младенцем на руках и фразой: «Это твоя дочь». Валентин отправляется на поиски матери ребенка. Жизнь заносит его в Голливуд, где он становится известным каскадером. Но когда в его доме появляется настоящая мать девочки, он вдруг понимает, что может потерять своего лучшего друга, которыми они стали с девочкой за шесть лет.
Доп. информация: Перевод Михаила Васильева. Работа со звуком - sashock86
Сэмпл: http://sendfile.su/948829
Тип релиза: BDRip 720p (PublicHD) исходник неизвестен
Контейнер: MKV
Видео: x264 High@L4.1, 1280x720, 23,976 fps, 4901 kbps, 0.222 bit/pixel
Аудио: DTS, 5.1 ch, 48 kHz, 1510 kbps [Russian]
Аудио 2: DTS, 5.1 ch, 48 kHz, 1509 kbps [Spanish]
Формат субтитров: softsub (UTF-8)

MediaInfo

Общее
Уникальный идентификатор : 214659503424395740114797616273765607657 (0xA17DEAA2F87868FCB83BC0A7E4E6A8E9)
Полное имя : Instruktsii.Ne.Prilagayutsya.2013.RUS.BDRip.720p.DTS.Matveev.-R.G.TorrBy.mkv
Формат : Matroska
Версия формата : Version 2
Размер файла : 6,75 Гбайт
Продолжительность : 2 ч. 1 м.
Общий поток : 7923 Кбит/сек
Дата кодирования : UTC 2014-03-03 21:23:10
Программа кодирования : mkvmerge v4.9.1 ('Ich will') сборка от Jul 11 2011 23:53:15
Библиотека кодирования : libebml v1.2.1 + libmatroska v1.1.1
Видео
Идентификатор : 1
Формат : AVC
Формат/Информация : Advanced Video Codec
Профиль формата : High@L4.1
Параметр CABAC формата : Да
Параметр ReFrames формата : 5 кадров
Идентификатор кодека : V_MPEG4/ISO/AVC
Продолжительность : 2 ч. 1 м.
Битрейт : 4901 Кбит/сек
Ширина : 1280 пикселей
Высота : 720 пикселей
Соотношение сторон : 16:9
Режим частоты кадров : Постоянный
Частота кадров : 23,976 кадра/сек
Цветовое пространство : YUV
Субдискретизация насыщенности : 4:2:0
Битовая глубина : 8 бит
Тип развёртки : Прогрессивная
Бит/(Пиксели*Кадры) : 0.222
Размер потока : 4,04 Гбайт (60%)
Заголовок : GECKOS (PublicHD)
Библиотека кодирования : x264 core 140 r2377 1ca7bb9
Настройки программы : cabac=1 / ref=5 / deblock=1:0:0 / analyse=0x3:0x133 / me=umh / subme=7 / psy=1 / psy_rd=1.00:0.00 / mixed_ref=1 / me_range=16 / chroma_me=1 / trellis=1 / 8x8dct=1 / cqm=0 / deadzone=21,11 / fast_pskip=0 / chroma_qp_offset=-2 / threads=36 / lookahead_threads=5 / sliced_threads=0 / nr=0 / decimate=1 / interlaced=0 / bluray_compat=0 / constrained_intra=0 / bframes=3 / b_pyramid=2 / b_adapt=1 / b_bias=0 / direct=1 / weightb=1 / open_gop=0 / weightp=2 / keyint=250 / keyint_min=23 / scenecut=40 / intra_refresh=0 / rc_lookahead=40 / rc=2pass / mbtree=1 / bitrate=4901 / ratetol=1.0 / qcomp=0.60 / qpmin=0 / qpmax=69 / qpstep=4 / cplxblur=20.0 / qblur=0.5 / ip_ratio=1.40 / aq=1:1.00
Default : Да
Forced : Нет
Аудио #1
Идентификатор : 2
Формат : DTS
Формат/Информация : Digital Theater Systems
Режим : 16
Параметр Endianness формата : Big
Идентификатор кодека : A_DTS
Продолжительность : 2 ч. 1 м.
Вид битрейта : Постоянный
Битрейт : 1510 Кбит/сек
Каналы : 6 каналов
Расположение каналов : Front: L C R, Side: L R, LFE
Частота : 48,0 КГц
Битовая глубина : 24 бит
Метод сжатия : С потерями
Размер потока : 1,29 Гбайт (19%)
Заголовок : Doctor Joker
Язык : Russian
Default : Нет
Forced : Нет
Аудио #2
Идентификатор : 3
Формат : DTS
Формат/Информация : Digital Theater Systems
Режим : 16
Параметр Endianness формата : Big
Идентификатор кодека : A_DTS
Продолжительность : 2 ч. 1 м.
Вид битрейта : Постоянный
Битрейт : 1509 Кбит/сек
Каналы : 6 каналов
Расположение каналов : Front: L C R, Side: L R, LFE
Частота : 48,0 КГц
Битовая глубина : 24 бит
Метод сжатия : С потерями
Размер потока : 1,29 Гбайт (19%)
Заголовок : Original
Язык : English
Default : Да
Forced : Нет
Текст #1
Идентификатор : 4
Формат : UTF-8
Идентификатор кодека : S_TEXT/UTF8
Идентификатор кодека/Информация : UTF-8 Plain Text
Язык : Russian
Default : Нет
Forced : Нет
Текст #2
Идентификатор : 5
Формат : UTF-8
Идентификатор кодека : S_TEXT/UTF8
Идентификатор кодека/Информация : UTF-8 Plain Text
Язык : English
Default : Да
Forced : Да
Меню
00:00:00.000 : en:00:00:00.000
00:05:31.706 : en:00:05:31.706
00:15:17.834 : en:00:15:17.834
00:28:24.453 : en:00:28:24.453
00:39:16.020 : en:00:39:16.020
00:48:57.893 : en:00:48:57.893
01:00:04.476 : en:01:00:04.476
01:11:40.046 : en:01:11:40.046
01:23:38.930 : en:01:23:38.930
01:33:31.898 : en:01:33:31.898
01:44:43.444 : en:01:44:43.444
01:55:49.401 : en:01:55:49.401

Скриншоты




_________________
Показать сообщения:    

Текущее время: Сегодня 08:24

Часовой пояс: GMT



Вы не можете начинать темы
Вы не можете отвечать на сообщения
Вы не можете редактировать свои сообщения
Вы не можете удалять свои сообщения
Вы не можете голосовать в опросах
Вы не можете прикреплять файлы к сообщениям
Вы не можете скачивать файлы