Важное объявление!
У Нас Все раздачи мультитрекерные, при нуле пиров в релизах, можете смело вставать на закачку!
 
Автор Сообщение

HUNTER

Стаж:
4 года 4 месяца
Сообщений:
56765

Репутация: 101

[+] [-]
Вне форума [Профиль] [ЛС]

Инструкции не прилагаются / No se Aceptan Devoluciones
Страна: Мексика
Студия: Alebrije Cine y Video, Fulano, Mengano y Asociados
Жанр: комедия
Год выпуска: 2013
Продолжительность: 02:01:57
Перевод: Профессиональный (многоголосый закадровый)
Перевод 2: Одноголосый закадровый А.Матвеев
Cубтитры: Rus, Eng
Оригинальная аудиодорожка: испанский
Режиссер: Эухенио Дербес / Eugenio Derbez
В ролях: Уго Стиглиц, Эухенио Дербес, Гилда Джентиле, Нэнси Таира, Джессика Линдси, Сэмми Перез, Арселия Рамирес
Описание: Жизнь плейбоя из Акапулько резко меняется, когда на пороге его дома ему вручили грудного младенца со словами — «Это твоя дочь». Шесть лет ему потребовалось, чтобы найти мать девочки, которую он искал от Мехико до Лос-Анджелеса. Чтобы прокормить себя и новообретенную дочь, он устроился в Голливуд и стал ведущим каскадером. Но когда накануне очередного дня рождения девочки у порога его дома появляется настоящая мать Мэгги, он вдруг понимает, что может потерять своего лучшего друга, которыми они стали с девочкой за шесть лет.

Тип релиза: BDRip 720p
Контейнер: MKV
Видео: MPEG-4 AVC, 7820 Кбит/с, 1280x720, 23,976 fps
Аудио: Rus, AC3, 448 kb/s (6 ch), 48 kHz - MVO
Аудио 2: Rus, AC3, 640 kb/s (6 ch), 48 kHz - А.Матвеев
Аудио 3: Spa, AC3, 640 kb/s (6 ch), 48 kHz
Формат субтитров: softsub (SRT)

MediaInfo

Format : Matroska
Format version : Version 4 / Version 2
File size : 8.13 GiB
Duration : 2h 1mn
Overall bit rate : 9 548 Kbps
Encoded date : UTC 2014-11-04 11:18:47
Writing application : mkvmerge v7.1.0 ('Good Love') 64bit built on Jul 27 2014 13:06:55
Writing library : libebml v1.3.0 + libmatroska v1.4.1
_STATISTICS_WRITING_APP : mkvmerge v7.1.0 ('Good Love') 64bit built on Jul 27 2014 13:06:55
_STATISTICS_WRITING_DATE_UTC : 2014-11-04 11:18:47
_STATISTICS_TAGS : BPS DURATION NUMBER_OF_FRAMES NUMBER_OF_BYTES
DURATION : 02:01:57.376000000
NUMBER_OF_FRAMES : 228668
NUMBER_OF_BYTES : 585390080
Video
ID : 1
Format : AVC
Format/Info : Advanced Video Codec
Format profile : High@L4.1
Format settings, CABAC : Yes
Format settings, ReFrames : 9 frames
Codec ID : V_MPEG4/ISO/AVC
Duration : 2h 1mn
Bit rate : 7 820 Kbps
Width : 1 280 pixels
Height : 720 pixels
Display aspect ratio : 16:9
Frame rate mode : Constant
Frame rate : 23.976 fps
Color space : YUV
Chroma subsampling : 4:2:0
Bit depth : 8 bits
Scan type : Progressive
Bits/(Pixel*Frame) : 0.354
Stream size : 6.50 GiB (80%)
Writing library : x264 core 133 r2334 a3ac64b
Encoding settings : cabac=1 / ref=9 / deblock=1:-3:-3 / analyse=0x3:0x113 / me=tesa / subme=11 / psy=1 / psy_rd=1.10:0.02 / mixed_ref=1 / me_range=32 / chroma_me=1 / trellis=2 / 8x8dct=1 / cqm=0 / deadzone=21,11 / fast_pskip=0 / chroma_qp_offset=-5 / threads=12 / lookahead_threads=2 / sliced_threads=0 / nr=0 / decimate=0 / interlaced=0 / bluray_compat=0 / constrained_intra=0 / bframes=8 / b_pyramid=2 / b_adapt=2 / b_bias=0 / direct=3 / weightb=1 / open_gop=0 / weightp=2 / keyint=250 / keyint_min=23 / scenecut=40 / intra_refresh=0 / rc=2pass / mbtree=0 / bitrate=7820 / ratetol=1.0 / qcomp=0.65 / qpmin=0 / qpmax=69 / qpstep=4 / cplxblur=20.0 / qblur=0.5 / ip_ratio=1.20 / pb_ratio=1.30 / aq=1:0.85
Language : English
Default : Yes
Forced : No
Audio #1
ID : 2
Format : AC-3
Format/Info : Audio Coding 3
Mode extension : CM (complete main)
Format settings, Endianness : Big
Codec ID : A_AC3
Duration : 2h 1mn
Bit rate mode : Constant
Bit rate : 448 Kbps
Channel(s) : 6 channels
Channel positions : Front: L C R, Side: L R, LFE
Sampling rate : 48.0 KHz
Bit depth : 16 bits
Compression mode : Lossy
Stream size : 391 MiB (5%)
Title : MVO
Language : Russian
Default : Yes
Forced : No
Audio #2
ID : 3
Format : AC-3
Format/Info : Audio Coding 3
Mode extension : CM (complete main)
Format settings, Endianness : Big
Codec ID : A_AC3
Duration : 2h 1mn
Bit rate mode : Constant
Bit rate : 640 Kbps
Channel(s) : 6 channels
Channel positions : Front: L C R, Side: L R, LFE
Sampling rate : 48.0 KHz
Bit depth : 16 bits
Compression mode : Lossy
Stream size : 558 MiB (7%)
Title : А.Матвеев
Language : Russian
Default : No
Forced : No
Audio #3
ID : 4
Format : AC-3
Format/Info : Audio Coding 3
Mode extension : CM (complete main)
Format settings, Endianness : Big
Codec ID : A_AC3
Duration : 2h 1mn
Bit rate mode : Constant
Bit rate : 640 Kbps
Channel(s) : 6 channels
Channel positions : Front: L C R, Side: L R, LFE
Sampling rate : 48.0 KHz
Bit depth : 16 bits
Compression mode : Lossy
Stream size : 558 MiB (7%)
Language : Spanish
Default : No
Forced : No
Text #1
ID : 5
Format : UTF-8
Codec ID : S_TEXT/UTF8
Codec ID/Info : UTF-8 Plain Text
Title : М.Васильев
Language : Russian
Default : No
Forced : No
Text #2
ID : 6
Format : UTF-8
Codec ID : S_TEXT/UTF8
Codec ID/Info : UTF-8 Plain Text
Language : English
Default : No
Forced : No
Menu
00:00:00.000 : en:00:00:00.000
00:05:31.706 : en:00:05:31.706
00:15:17.833 : en:00:15:17.833
00:28:24.452 : en:00:28:24.452
00:39:16.020 : en:00:39:16.020
00:48:57.893 : en:00:48:57.893
01:00:04.475 : en:01:00:04.475
01:11:40.045 : en:01:11:40.045
01:23:38.930 : en:01:23:38.930
01:33:31.897 : en:01:33:31.897
01:44:43.443 : en:01:44:43.443
01:55:49.400 : en:01:55:49.400

Скриншоты


_________________
Показать сообщения:    

Текущее время: Сегодня 03:35

Часовой пояс: GMT



Вы не можете начинать темы
Вы не можете отвечать на сообщения
Вы не можете редактировать свои сообщения
Вы не можете удалять свои сообщения
Вы не можете голосовать в опросах
Вы не можете прикреплять файлы к сообщениям
Вы не можете скачивать файлы