Важное объявление!
У Нас Все раздачи мультитрекерные, при нуле пиров в релизах, можете смело вставать на закачку!
 
Автор Сообщение

HUNTER

Стаж:
4 года 4 месяца
Сообщений:
56755

Репутация: 101

[+] [-]
Вне форума [Профиль] [ЛС]

Иногда они возвращаются снова / Sometimes They Come Back... Again«True evil never dies»
Страна: США
Студия: Trimark Pictures
Жанр: Ужасы
Год выпуска: 1996
Продолжительность: 01:38:26
Перевод: Одноголосый закадровый (Андрей Гаврилов)
Оригинальная аудиодорожка: Английская
Cубтитры: Английские
Режиссер: Адам Гроссман/Adam Grossman
В ролях: Майкл Гросс, Алексис Аркетт, Хилари Суэнк, Боджесси Кристофер, Глен Боуден, Дженнифер Элиз Кокс, Дженнифер Аспен, Уильям Морган Шеппард, Майкл Малота, Гэбриел Делл мл.
Описание: 30 лет назад психиатр Йон Портер потерял сестру. Она стала жертвой тайного ритуала демонов во плоти, а он стал свидетелем этой жуткой казни. Спустя много лет при загадочных обстоятельствах погибает его мать. Дьяволы вернулись? Да, и теперь опасность подстерегает всех жителей маленького городка. В одном из новых приятелей дочери Мишель он узнает того, кто лишил жизни сестру. Девушка может стать следующей жертвой нечистой силы…
Сэмпл: Скачать
Тип релиза: WEB-DL 720p
Контейнер: MKV
Видео: H264, NTSC, 1280x716, (16:9), ~3987 Kbps, 23.976 fps, ~0.181 bit/pixel
Аудио 1: Russian: Gavrilov - 48 kHz, AC3, 2.0, 192 kbps
Аудио 2: English: Original - 48 kHz, AC3, 2.0, 192 kbps
Формат субтитров: softsub (SRT)

MediaInfo

Complete name : D:\Rutracker\Sometimes.They.Come.Back.Again.1996.720p.WEB-DL..AC3.Rus.Eng\Sometimes.They.Come.Back.Again.1996.720p.WEB-DL.AC3.2.0.Rus.Eng.mkv
Format : Matroska
Format version : Version 4 / Version 2
File size : 3.07 GiB
Duration : 1h 38mn
Overall bit rate : 4 460 Kbps
Encoded date : UTC 2014-03-13 13:36:43
Writing application : mkvmerge v6.5.0 ('Isn't she lovely') built on Oct 20 2013 12:50:05
Writing library : libebml v1.3.0 + libmatroska v1.4.1
Video
ID : 1
Format : AVC
Format/Info : Advanced Video Codec
Format profile : High@L3.1
Format settings, CABAC : No
Format settings, ReFrames : 2 frames
Codec ID : V_MPEG4/ISO/AVC
Duration : 1h 38mn
Bit rate : 3 987 Kbps
Width : 1 280 pixels
Height : 716 pixels
Display aspect ratio : 16:9
Frame rate mode : Constant
Frame rate : 23.976 fps
Color space : YUV
Chroma subsampling : 4:2:0
Bit depth : 8 bits
Scan type : Progressive
Bits/(Pixel*Frame) : 0.181
Stream size : 2.74 GiB (89%)
Title : Sometimes.They.Come.Back.Again.1996.720p.WEB-DL.H264-HDB
Language : English
Default : Yes
Forced : No
Color primaries : BT.709
Transfer characteristics : BT.709
Matrix coefficients : BT.709
Audio #1
ID : 2
Format : AC-3
Format/Info : Audio Coding 3
Mode extension : CM (complete main)
Format settings, Endianness : Big
Codec ID : A_AC3
Duration : 1h 38mn
Bit rate mode : Constant
Bit rate : 192 Kbps
Channel count : 2 channels
Channel positions : Front: L R
Sampling rate : 48.0 KHz
Bit depth : 16 bits
Compression mode : Lossy
Stream size : 135 MiB (4%)
Title : Rus_AC3, 2 ch, 192 .Gavrilov
Language : Russian
Default : Yes
Forced : No
Audio #2
ID : 3
Format : AC-3
Format/Info : Audio Coding 3
Mode extension : CM (complete main)
Format settings, Endianness : Big
Codec ID : A_AC3
Duration : 1h 38mn
Bit rate mode : Constant
Bit rate : 192 Kbps
Channel count : 2 channels
Channel positions : Front: L R
Sampling rate : 48.0 KHz
Bit depth : 16 bits
Compression mode : Lossy
Stream size : 135 MiB (4%)
Title : Eng_AC3, 2 ch, 192
Language : English
Default : No
Forced : No
Text
ID : 4
Format : UTF-8
Codec ID : S_TEXT/UTF8
Codec ID/Info : UTF-8 Plain Text
Language : English
Default : No
Forced : No
Menu
00:00:00.000 : en:Chapter 1
00:08:30.000 : en:Chapter 2
00:15:09.000 : en:Chapter 3
00:23:28.000 : en:Chapter 4
00:31:53.000 : en:Chapter 5
00:39:50.000 : en:Chapter 6
00:48:49.000 : en:Chapter 7
00:58:17.000 : en:Chapter 8
01:06:06.000 : en:Chapter 9
01:14:37.000 : en:Chapter 10
01:24:26.000 : en:Chapter 11
01:34:49.000 : en:Chapter 12

Скриншоты



_________________
Показать сообщения:    

Текущее время: Сегодня 17:41

Часовой пояс: GMT



Вы не можете начинать темы
Вы не можете отвечать на сообщения
Вы не можете редактировать свои сообщения
Вы не можете удалять свои сообщения
Вы не можете голосовать в опросах
Вы не можете прикреплять файлы к сообщениям
Вы не можете скачивать файлы