Важное объявление!
У Нас Все раздачи мультитрекерные, при нуле пиров в релизах, можете смело вставать на закачку!
 
Автор Сообщение

HUNTER

Стаж:
4 года 4 месяца
Сообщений:
56848

Репутация: 101

[+] [-]
Вне форума [Профиль] [ЛС]

| Все релизы мультфильма || BDRip 1080p, 6.82 GB |- P R E S E N T SИндюки: Назад в будущее / Free Birds-
Страна: США
Жанр: мультфильм, комедия, приключения, семейный
Продолжительность: 01:31:03
Год выпуска: 2013
Перевод: Профессиональный (полное дублирование)
Субтитры: русских нет-Режиссёр: Джимми Хейуорд / Jimmy Hayward
Роли озвучивали: Оуэн Уилсон, Вуди Харрельсон, Эми Полер, Джордж Такей, Колм Мини, Кит Дэвид, Дэн Фоглер, Джимми Хейуорд, Кейтлин Мехер, Карлос Аласраки, Джефф Бьянкалана, Дэнни Кэри, Карлос Понсе, Роберт Белтран, Лесли Никол, Скотт Можер...
Роли дублировали: Денис Колесников, Ян Розенберг, Светлана Молодцова, Василиса Эльдарова, Даниил Эльдаров и др.- | | -Описание: Индюк Реджи вырос на обычной ферме, его жизнь была скучной и однообразной, как и у других птиц. Однако он отличался от сородичей тем, что умел пользоваться смекалкой и понимал, зачем его кормят. Поедание индейки на День Благодарения - знаменитая американская традиция, которая определяет смысл существования всех индюков на этой ферме. Однажды у Реджи появилась возможность кардинально изменить ситуацию: вместе с безумным приятелем Джейком они отправляются в необычное путешествие на машине времени. Основная задача - вернуться во времена, когда зарождалась традиция приготовления индейки на праздник, и изменить ход истории...-Доп. информация: BDRip 1080p сделан с Blu-Ray диска Free Birds 2013 1080p Blu-ray AVC DTS-HD MA 5.1-HDWinG (2D US Transfer).-Сэмпл/Sample (62.8 MB, 1 минута)-Качество: BDRip 1080p
Формат: MKV
Видео: 1920x1040 (1.846:1), 23,976 fps, ~7700 kbps avg, 0.161 bit/pixel
Аудио #1: Русский, DTS / 5.1 / 48 kHz / 1509 kbps / 16 bit - Дубляж | Студия "Мосфильм-Мастер"
Аудио #3: English, DTS / 5.1 / 48 kHz / 1509 kbps / 24 bit - Original
Субтитры: English (Full, SDH), Spanish (Full)
Навигация по главам: есть (24 не именованные главы)

Сравнение Трансферов

...2D/3D Rus Transfer.............................2D US Transfer...

MediaInfo / x264Log

x264Log

raw [info]: 1920x1040p 1:1 @ 24000/1001 fps (cfr)x264 [info]: using SAR=1/1x264 [info]: using cpu capabilities: MMX2 SSE2Fast SSSE3 SSE4.2 AVX XOP FMA4 FMA3 LZCNT BMI1x264 [info]: profile High, level 4.1x264 [info]: frame I:1526 Avg QP:12.61 size:279618 PSNR Mean Y:50.45 U:53.11 V:53.27 Avg:51.03 Global:50.29x264 [info]: frame P:37773 Avg QP:15.07 size: 71321 PSNR Mean Y:49.00 U:53.84 V:54.00 Avg:49.73 Global:48.71x264 [info]: frame B:91693 Avg QP:18.17 size: 23317 PSNR Mean Y:48.41 U:53.56 V:53.72 Avg:49.21 Global:47.97x264 [info]: consecutive B-frames: 5.1% 7.2% 9.5% 61.6% 5.2% 5.7% 1.3% 3.0% 0.4% 0.2% 0.6%x264 [info]: mb I I16..4: 9.7% 57.2% 33.2%x264 [info]: mb P I16..4: 2.2% 13.3% 3.9% P16..4: 21.4% 21.0% 8.2% 2.6% 0.3% skip:27.2%x264 [info]: mb B I16..4: 0.4% 2.1% 0.5% B16..8: 26.1% 12.6% 2.0% direct: 3.5% skip:52.8% L0:41.8% L1:45.7% BI:12.5%x264 [info]: 8x8 transform intra:67.3% inter:41.3%x264 [info]: coded y,uvDC,uvAC intra: 77.8% 81.3% 65.2% inter: 14.3% 11.9% 3.8%x264 [info]: i16 v,h,dc,p: 26% 12% 7% 55%x264 [info]: i8 v,h,dc,ddl,ddr,vr,hd,vl,hu: 11% 11% 13% 9% 10% 10% 11% 11% 14%x264 [info]: i4 v,h,dc,ddl,ddr,vr,hd,vl,hu: 14% 11% 12% 8% 12% 11% 10% 9% 12%x264 [info]: i8c dc,h,v,p: 37% 27% 18% 17%x264 [info]: Weighted P-Frames: Y:4.8% UV:3.9%x264 [info]: ref P L0: 63.8% 7.7% 18.0% 9.1% 1.4% 0.1%x264 [info]: ref B L0: 88.9% 8.6% 2.5%x264 [info]: ref B L1: 94.6% 5.4%x264 [info]: SSIM Mean Y:0.9901654 (20.072db)x264 [info]: PSNR Mean Y:48.608 U:53.637 V:53.798 Avg:49.379 Global:48.193 kb/s:7700.14encoded 130992 frames, 5.48 fps, 7700.14 kb/s
GeneralUnique ID : 247035678057745381288673978336032130409 (0xB9D95749D5125CCB8FA28F9F1F210569)Complete name : Free.Birds.2013.USTransfer.BDRip.1080p.dfcbit.mkvFormat : MatroskaFormat version : Version 2File size : 6.82 GiBDuration : 1h 31mnOverall bit rate : 10.7 MbpsEncoded date : UTC 2014-01-30 05:23:04Writing application : mkvmerge v4.0.0 ('The Stars were mine') built on Jun 6 2010 16:18:42Writing library : libebml v1.0.0 + libmatroska v1.0.0
VideoID : 1Format : AVCFormat/Info : Advanced Video CodecFormat profile : High@L4.1Format settings, CABAC : YesFormat settings, ReFrames : 4 framesCodec ID : V_MPEG4/ISO/AVCDuration : 1h 31mnBit rate : 7 700 KbpsWidth : 1 920 pixelsHeight : 1 040 pixelsDisplay aspect ratio : 1.85:1Frame rate mode : ConstantFrame rate : 23.976 fpsColor space : YUVChroma subsampling : 4:2:0Bit depth : 8 bitsScan type : ProgressiveBits/(Pixel*Frame) : 0.161Stream size : 4.89 GiB (70%)Title : NTSC, 1920x1040 (1.846:1), BDRip 1080p - tRuAVC & Multfilmy [DFCbit]Writing library : x264 core 142 r2389kMod 956c8d8Encoding settings : cabac=1 / ref=4 / deblock=1:-2:-1 / analyse=0x3:0x133 / me=umh / subme=11 / psy=1 / fade_compensate=0.00 / psy_rd=0.63:0.00 / mixed_ref=1 / me_range=32 / chroma_me=1 / trellis=2 / 8x8dct=1 / cqm=0 / deadzone=21,11 / fast_pskip=0 / chroma_qp_offset=-2 / threads=12 / lookahead_threads=3 / sliced_threads=0 / nr=0 / decimate=1 / interlaced=0 / bluray_compat=0 / constrained_intra=0 / fgo=0 / bframes=10 / b_pyramid=2 / b_adapt=2 / b_bias=0 / direct=1 / weightb=1 / open_gop=0 / weightp=2 / keyint=250 / keyint_min=23 / scenecut=40 / intra_refresh=0 / rc_lookahead=70 / rc=crf / mbtree=0 / crf=18.1800 / qcomp=0.81 / qpmin=0 / qpmax=69 / qpstep=4 / vbv_maxrate=50000 / vbv_bufsize=62500 / crf_max=0.0 / nal_hrd=none / filler=0 / ip_ratio=1.40 / pb_ratio=1.30 / aq=3:0.90Language : EnglishDefault : YesForced : NoColor primaries : BT.709Transfer characteristics : BT.709Matrix coefficients : BT.709
Audio #1ID : 2Format : DTSFormat/Info : Digital Theater SystemsMode : 16Format settings, Endianness : BigCodec ID : A_DTSDuration : 1h 31mnBit rate mode : ConstantBit rate : 1 509 KbpsChannel(s) : 6 channelsChannel positions : Front: L C R, Side: L R, LFESampling rate : 48.0 KHzBit depth : 16 bitsCompression mode : LossyStream size : 983 MiB (14%)Title : DTS / 5.1 / 48 kHz / 1509 kbps / 16 bit - Дубляж | Студия "Мосфильм-Мастер"Language : RussianDefault : YesForced : No
Audio #2ID : 3Format : DTSFormat/Info : Digital Theater SystemsMode : 16Format settings, Endianness : BigCodec ID : A_DTSDuration : 1h 31mnBit rate mode : ConstantBit rate : 1 509 KbpsChannel(s) : 6 channelsChannel positions : Front: L C R, Side: L R, LFESampling rate : 48.0 KHzBit depth : 24 bitsCompression mode : LossyStream size : 983 MiB (14%)Title : DTS / 5.1 / 48 kHz / 1509 kbps / 24 bit - OriginalLanguage : EnglishDefault : NoForced : No
Text #1ID : 4Format : UTF-8Codec ID : S_TEXT/UTF8Codec ID/Info : UTF-8 Plain TextTitle : SRT, FullLanguage : EnglishDefault : NoForced : No
Text #2ID : 5Format : UTF-8Codec ID : S_TEXT/UTF8Codec ID/Info : UTF-8 Plain TextTitle : SRT, (SDH)Language : EnglishDefault : NoForced : No
Text #3ID : 6Format : UTF-8Codec ID : S_TEXT/UTF8Codec ID/Info : UTF-8 Plain TextTitle : SRT, FullLanguage : SpanishDefault : NoForced : No
Menu00:00:00.000 : en:Chapter 100:03:48.186 : en:Chapter 200:09:36.451 : en:Chapter 300:13:31.811 : en:Chapter 400:17:51.487 : en:Chapter 500:22:35.104 : en:Chapter 600:26:29.505 : en:Chapter 700:30:57.022 : en:Chapter 800:33:04.900 : en:Chapter 900:36:19.260 : en:Chapter 1000:39:26.447 : en:Chapter 1100:40:29.469 : en:Chapter 1200:43:32.860 : en:Chapter 1300:46:35.292 : en:Chapter 1400:49:44.523 : en:Chapter 1500:54:15.419 : en:Chapter 1601:00:08.730 : en:Chapter 1701:02:53.061 : en:Chapter 1801:07:34.968 : en:Chapter 1901:10:32.812 : en:Chapter 2001:14:21.332 : en:Chapter 2101:16:43.224 : en:Chapter 2201:19:38.941 : en:Chapter 2301:23:57.741 : en:Chapter 24

Скриншоты

Скриншот с названием мультфильма
--BDRip 1080p


Source Blu-Ray

Релиз от групп | and | -Данный релиз не будет воспроизводиться на бытовых плеерах не поддерживающих MKV и H.264Обсуждение релизов в AVC формате || Свежие AVC рипы

_________________
Показать сообщения:    

Текущее время: Сегодня 06:45

Часовой пояс: GMT



Вы не можете начинать темы
Вы не можете отвечать на сообщения
Вы не можете редактировать свои сообщения
Вы не можете удалять свои сообщения
Вы не можете голосовать в опросах
Вы не можете прикреплять файлы к сообщениям
Вы не можете скачивать файлы
Наши партнеры: интернет магазин Ивановского трикотажа textilla.ru