Важное объявление!
У Нас Все раздачи мультитрекерные, при нуле пиров в релизах, можете смело вставать на закачку!
 
Автор Сообщение

димитри37

Стаж:
3 года 9 месяцев
Сообщений:
1237

Репутация: 127

[+] [-]
Вне форума [Профиль] [ЛС]

Индиана Джонс: В поисках утраченного ковчега / Raiders of the Lost Ark
Год выпуска: 1981
Страна: США
Жанр: Боевик, приключения
Продолжительность: 01:53:03
Перевод: Профессиональный (многоголосый, закадровый)
Русские субтитры: есть - отдельно
Режиссер: Стивен Спилберг / Steven Spielberg
В ролях: Харрисон Форд, Карен Аллен, Пол Фриман, Рональд Лэйси, Джон Рис-Дэвис, Денхолм Эллиотт, Альфред Молина, Энтони Хиггинс
Описание: Известный археолог и специалист по оккультным наукам доктор Джонс получает опасное задание от правительства США. Он должен отправиться на поиски уникальной реликвии - священного Ковчега. Но Индиана и не подозревает, что аналогичный приказ уже получили тайные агенты Адольфа Гитлера...
Этим потрясающим фильмом продюсер Джордж Лукас и режиссер Стивен Спилберг положили начало саги о странствиях благородного доктора Джонса по всевозможным уголкам земного шара.
Доп. информация:
IMDB
Рамер файла 1/2 DVDРаздача от группы: Качество: DVDRip
Формат: AVI
Видео кодек: XviD
Аудио кодек: AC3
Видео: 720x304 (2.37:1) 25 fps XviD build 50 2033 kbps avg 0.37 bit/pixel
Аудио: 48 kHz AC3 Dolby Digital 3/2 (L,C,R,l,r) + LFE ch 384.00 kbps avg RUS
Аудио: 48 kHz AC3 Dolby Digital 3/2 (L,C,R,l,r) + LFE ch 384.00 kbps avg ENG
Аудио: 48 kHz AC3 Dolby Digital 3/2 (L,C,R,l,r) + LFE ch 384.00 kbps avg Михалев - отдельно
Субтитры: русские - отдельно

AviInfo

File: idiana1.chopper887.avi
Filesize: 2233.38 Mb ( 2 341 867 520 bytes )
Play length: 01:50:55.000 (166375 frames)
Subtitles: Not Present
Video: 720x304 (2.37:1), 25 fps, XviD build 50 ~2033 kbps avg, 0.37 bit/pixel
Audio #1: 48 kHz, AC3 Dolby Digital, 3/2 (L,C,R,l,r) + LFE ch, ~384 kbps
Audio #2: 48 kHz, AC3 Dolby Digital, 3/2 (L,C,R,l,r) + LFE ch, ~384 kbps

MediaInfo

General
Complete name : D:\Indiana Jons.Kvadrology.chopper887\idiana1.chopper887.avi
Format : AVI
Format/Info : Audio Video Interleave
File size : 2.18 GiB
Duration : 1h 50mn
Overall bit rate : 2 815 Kbps
Writing application : VirtualDubMod 1.5.10.2 (build 2540/release)
Writing library : VirtualDubMod build 2540/release
Video
ID : 0
Format : MPEG-4 Visual
Format profile : AdvancedSimple@L5
Format settings, BVOP : Yes
Format settings, QPel : No
Format settings, GMC : No warppoints
Format settings, Matrix : Default (H.263)
Codec ID : XVID
Codec ID/Hint : XviD
Duration : 1h 50mn
Bit rate : 2 033 Kbps
Width : 720 pixels
Height : 304 pixels
Display aspect ratio : 2.35:1
Frame rate : 25.000 fps
Resolution : 24 bits
Colorimetry : 4:2:0
Scan type : Progressive
Bits/(Pixel*Frame) : 0.371
Stream size : 1.57 GiB (72%)
Writing library : XviD 1.2.1 (UTC 2008-12-04)
Audio #1
ID : 1
Format : AC-3
Format/Info : Audio Coding 3
Codec ID : 2000
Duration : 1h 50mn
Bit rate mode : Constant
Bit rate : 384 Kbps
Channel(s) : 6 channels
Channel positions : Front: L C R, Surround: L R, LFE
Sampling rate : 48.0 KHz
Stream size : 305 MiB (14%)
Alignment : Split accross interleaves
Interleave, duration : 40 ms (1.00 video frame)
Interleave, preload duration : 500 ms
Audio #2
ID : 2
Format : AC-3
Format/Info : Audio Coding 3
Codec ID : 2000
Duration : 1h 50mn
Bit rate mode : Constant
Bit rate : 384 Kbps
Channel(s) : 6 channels
Channel positions : Front: L C R, Surround: L R, LFE
Sampling rate : 48.0 KHz
Stream size : 305 MiB (14%)
Alignment : Split accross interleaves
Interleave, duration : 40 ms (1.00 video frame)
Interleave, preload duration : 500 ms

Скриншоты

Индиана Джонс и Храм Судьбы / Indiana Jones and the Temple of Doom
Год выпуска: 1984
Страна: США
Жанр: Боевик, приключения
Продолжительность: 01:51:43
Перевод: Профессиональный (многоголосый, закадровый)
Русские субтитры: есть - отдельно
Режиссер: Стивен Спилберг / Steven Spielberg
В ролях: Харрисон Форд, Кейт Кэпшоу, Ки Хай Куан, Эмриш Пьюри, Рошан Сет, Филип Стоун, Дэн Эйкройд
Описание: Вторая часть невероятных похождений прославленного археолога и искателя приключений Индианы Джонса. В этот раз бесстрашный доктор Джонс совершит путешествие в сердце Гималаев вместе с ресторанной певичкой Уилли Скотт и своим верным маленьким помощником Коротышкой.
Здесь, среди величественных гор, археологу и его спутникам предстоит столкнуться кровавым культом поклонения древней Богине Смерти – Кали. Станет ли Индиана следующим несчастным, погибшим на жутком алтаре человеческих жертвоприношений, или ему, как всегда, удастся вырваться из цепких лап страха и разобраться со злодеями.
Доп. информация:
IMDB
Рамер файла 1/2 DVDРаздача от группы: Качество: DVDRip
Формат: AVI
Видео кодек: XviD
Аудио кодек: AC3
Видео: 720x304 (2.37:1) 25 fps XviD build 50 1981 kbps avg 0.36 bit/pixel
Аудио: 48 kHz AC3 Dolby Digital 3/2 (L,C,R,l,r) + LFE ch 384.00 kbps avg RUS
Аудио: 48 kHz AC3 Dolby Digital 3/2 (L,C,R,l,r) + LFE ch 384.00 kbps avg ENG
Аудио: 48 kHz AC3 Dolby Digital 3/2 (L,C,R,l,r) + LFE ch 384.00 kbps avg Гаврилов - отдельно
Субтитры: русские - отдельно

AviInfo

File: indiana2.chopper887.avi
Filesize: 2230.80 Mb ( 2 339 162 112 bytes )
Play length: 01:52:52.959 (169324 frames)
Subtitles: Not Present
Video: 720x304 (2.37:1), 25 fps, XviD build 50 ~1980 kbps avg, 0.36 bit/pixel
Audio #1: 48 kHz, AC3 Dolby Digital, 3/2 (L,C,R,l,r) + LFE ch, ~384 kbps
Audio #2: 48 kHz, AC3 Dolby Digital, 3/2 (L,C,R,l,r) + LFE ch, ~384 kbps

MediaInfo

General
Complete name : D:\Indiana Jons.Kvadrology.chopper887\indiana2.chopper887.avi
Format : AVI
Format/Info : Audio Video Interleave
File size : 2.18 GiB
Duration : 1h 52mn
Overall bit rate : 2 763 Kbps
Writing application : VirtualDubMod 1.5.10.2 (build 2540/release)
Writing library : VirtualDubMod build 2540/release
Video
ID : 0
Format : MPEG-4 Visual
Format profile : AdvancedSimple@L5
Format settings, BVOP : Yes
Format settings, QPel : No
Format settings, GMC : No warppoints
Format settings, Matrix : Default (H.263)
Codec ID : XVID
Codec ID/Hint : XviD
Duration : 1h 52mn
Bit rate : 1 980 Kbps
Width : 720 pixels
Height : 304 pixels
Display aspect ratio : 2.35:1
Frame rate : 25.000 fps
Resolution : 24 bits
Colorimetry : 4:2:0
Scan type : Progressive
Bits/(Pixel*Frame) : 0.362
Stream size : 1.56 GiB (72%)
Writing library : XviD 1.2.1 (UTC 2008-12-04)
Audio #1
ID : 1
Format : AC-3
Format/Info : Audio Coding 3
Codec ID : 2000
Duration : 1h 52mn
Bit rate mode : Constant
Bit rate : 384 Kbps
Channel(s) : 6 channels
Channel positions : Front: L C R, Surround: L R, LFE
Sampling rate : 48.0 KHz
Stream size : 310 MiB (14%)
Alignment : Split accross interleaves
Interleave, duration : 40 ms (1.00 video frame)
Interleave, preload duration : 500 ms
Audio #2
ID : 2
Format : AC-3
Format/Info : Audio Coding 3
Codec ID : 2000
Duration : 1h 52mn
Bit rate mode : Constant
Bit rate : 384 Kbps
Channel(s) : 6 channels
Channel positions : Front: L C R, Surround: L R, LFE
Sampling rate : 48.0 KHz
Stream size : 310 MiB (14%)
Alignment : Split accross interleaves
Interleave, duration : 40 ms (1.00 video frame)
Interleave, preload duration : 500 ms

Скриншоты

Индиана Джонс и последний крестовый поход / Indiana Jones and the Last Crusade
Год выпуска: 1989
Страна: США
Жанр: Боевик, приключения
Продолжительность: 02:00:53
Перевод: Профессиональный (многоголосый, закадровый)
Русские субтитры: есть - отдельно
Режиссер: Стивен Спилберг / Steven Spielberg
В ролях: Харрисон Форд, Шон Коннери, Денхолм Эллиотт, Элисон Дуди, Джулиэн Гловер, Джон Рис-Дэвис
Описание: Третья часть невероятных похождений прославленного археолога и искателя приключений Индианы Джонса. На этот раз бесстрашный Индиана разыскивает самую таинственную реликвию в истории человечества - Святой Грааль. В этом археологу помогает его отец – профессор Джонс старший. Теперь под бдительным оком своего отца и при помощи своих верных талисманов, неизменной шляпы и хлыста, Индиане предстоит совершить много благородных подвигов и потрясающих открытий. В новых странствиях храброму археологу доведется добыть чашу, которую держал в руках Иисус Христос и получить автограф... самого Адольфа Гитлера.
Доп. информация:
IMDB
Рамер файла 1/2 DVDРаздача от группы: Качество: DVDRip
Формат: AVI
Видео кодек: XviD
Аудио кодек: AC3
Видео: 720x304 (2.37:1) 25 fps XviD build 50 1779 kbps avg 0.33 bit/pixel
Аудио: 48 kHz AC3 Dolby Digital 3/2 (L,C,R,l,r) + LFE ch 384.00 kbps avg RUS
Аудио: 48 kHz AC3 Dolby Digital 3/2 (L,C,R,l,r) + LFE ch 384.00 kbps avg ENG
Аудио: 48 kHz AC3 Dolby Digital 3/2 (L,C,R,l,r) + LFE ch 384.00 kbps avg Гаврилов - отдельно
Субтитры: русские - отдельно

AviInfo

File: indiana3.chopper887.avi
Filesize: 2234.68 Mb ( 2 343 227 392 bytes )
Play length: 02:01:59.160 (182979 frames)
Subtitles: Not Present
Video: 720x304 (2.37:1), 25 fps, XviD build 50 ~1779 kbps avg, 0.33 bit/pixel
Audio #1: 48 kHz, AC3 Dolby Digital, 3/2 (L,C,R,l,r) + LFE ch, ~384 kbps
Audio #2: 48 kHz, AC3 Dolby Digital, 3/2 (L,C,R,l,r) + LFE ch, ~384 kbps

MediaInfo

General
Complete name : D:\Indiana Jons.Kvadrology.chopper887\indiana3.chopper887.avi
Format : AVI
Format/Info : Audio Video Interleave
File size : 2.18 GiB
Duration : 2h 1mn
Overall bit rate : 2 561 Kbps
Writing application : VirtualDubMod 1.5.10.2 (build 2540/release)
Writing library : VirtualDubMod build 2540/release
Video
ID : 0
Format : MPEG-4 Visual
Format profile : AdvancedSimple@L5
Format settings, BVOP : Yes
Format settings, QPel : No
Format settings, GMC : No warppoints
Format settings, Matrix : Default (H.263)
Codec ID : XVID
Codec ID/Hint : XviD
Duration : 2h 1mn
Bit rate : 1 779 Kbps
Width : 720 pixels
Height : 304 pixels
Display aspect ratio : 2.35:1
Frame rate : 25.000 fps
Resolution : 24 bits
Colorimetry : 4:2:0
Scan type : Progressive
Bits/(Pixel*Frame) : 0.325
Stream size : 1.52 GiB (69%)
Writing library : XviD 1.2.1 (UTC 2008-12-04)
Audio #1
ID : 1
Format : AC-3
Format/Info : Audio Coding 3
Codec ID : 2000
Duration : 2h 1mn
Bit rate mode : Constant
Bit rate : 384 Kbps
Channel(s) : 6 channels
Channel positions : Front: L C R, Surround: L R, LFE
Sampling rate : 48.0 KHz
Stream size : 335 MiB (15%)
Alignment : Split accross interleaves
Interleave, duration : 40 ms (1.00 video frame)
Interleave, preload duration : 500 ms
Audio #2
ID : 2
Format : AC-3
Format/Info : Audio Coding 3
Codec ID : 2000
Duration : 2h 1mn
Bit rate mode : Constant
Bit rate : 384 Kbps
Channel(s) : 6 channels
Channel positions : Front: L C R, Surround: L R, LFE
Sampling rate : 48.0 KHz
Stream size : 335 MiB (15%)
Alignment : Split accross interleaves
Interleave, duration : 40 ms (1.00 video frame)
Interleave, preload duration : 500 ms

Скриншоты

Индиана Джонс и Королевство xрустального черепа / Indiana Jones and the Kingdom of the Crystal Skull
Год выпуска: 2008
Страна: США
Жанр: Боевик, приключения
Продолжительность: 02:00:00
Перевод: Профессиональный (полное дублирование)
Русские субтитры: есть - отдельно
Режиссер: Стивен Спилберг / Steven Spielberg
В ролях: Харрисон Форд, Кейт Бланшетт, Карен Аллен, Шайа ЛаБаф, Рэй Уинстон, Джон Хёрт, Джим Бродбент, Игорь Жижикин, Дмитрий Дьяченко, Илья Волох
Описание: 1957 год, разгар холодной войны. Советские солдаты, возглавляемые агентом Ириной Спалько, похищают Мэрион Рэйвенвуд — давнюю возлюбленную Индианы Джонса, ставя профессора перед выбором: бездействие и смерть Мэрион или помощь советской разведке в поисках легендарного Хрустального черепа в обмен на свободу женщины.
Доп. информация:
IMDB
Рамер файла 1/2 DVDРаздача от группы: Качество: DVDRip
Формат: AVI
Видео кодек: XviD
Аудио кодек: AC3
Видео: 720x304 (2.37:1) 25 fps XviD build 50 1897 kbps avg 0.35 bit/pixel
Аудио: 48 kHz AC3 Dolby Digital 3/2 (L,C,R,l,r) + LFE ch 384.00 kbps avg RUS
Аудио: 48 kHz AC3 Dolby Digital 3/2 (L,C,R,l,r) + LFE ch 384.00 kbps avg ENG
Аудио: 48 kHz AC3 Dolby Digital 3/2 (L,C,R,l,r) + LFE ch 384.00 kbps avg Украинский дубляж - отдельно
Субтитры: русские - отдельно

AviInfo

File: indiana4.chopper887.avi
Filesize: 2234.89 Mb ( 2 343 448 576 bytes )
Play length: 01:56:32.000 (174800 frames)
Subtitles: Not Present
Video: 720x304 (2.37:1), 25 fps, XviD build 50 ~1897 kbps avg, 0.35 bit/pixel
Audio #1: 48 kHz, AC3 Dolby Digital, 3/2 (L,C,R,l,r) + LFE ch, ~384 kbps
Audio #2: 48 kHz, AC3 Dolby Digital, 3/2 (L,C,R,l,r) + LFE ch, ~384 kbps

MediaInfo

General
Complete name : D:\Indiana Jons.Kvadrology.chopper887\indiana4.chopper887.avi
Format : AVI
Format/Info : Audio Video Interleave
File size : 2.18 GiB
Duration : 1h 56mn
Overall bit rate : 2 681 Kbps
Writing application : VirtualDubMod 1.5.10.2 (build 2540/release)
Writing library : VirtualDubMod build 2540/release
Video
ID : 0
Format : MPEG-4 Visual
Format profile : AdvancedSimple@L5
Format settings, BVOP : Yes
Format settings, QPel : No
Format settings, GMC : No warppoints
Format settings, Matrix : Default (H.263)
Codec ID : XVID
Codec ID/Hint : XviD
Duration : 1h 56mn
Bit rate : 1 899 Kbps
Width : 720 pixels
Height : 304 pixels
Display aspect ratio : 2.35:1
Frame rate : 25.000 fps
Resolution : 24 bits
Colorimetry : 4:2:0
Scan type : Progressive
Bits/(Pixel*Frame) : 0.347
Stream size : 1.55 GiB (71%)
Writing library : XviD 1.2.1 (UTC 2008-12-04)
Audio #1
ID : 1
Format : AC-3
Format/Info : Audio Coding 3
Codec ID : 2000
Duration : 1h 56mn
Bit rate mode : Constant
Bit rate : 384 Kbps
Channel(s) : 6 channels
Channel positions : Front: L C R, Surround: L R, LFE
Sampling rate : 48.0 KHz
Stream size : 320 MiB (14%)
Alignment : Split accross interleaves
Interleave, duration : 40 ms (1.00 video frame)
Interleave, preload duration : 500 ms
Audio #2
ID : 2
Format : AC-3
Format/Info : Audio Coding 3
Codec ID : 2000
Duration : 1h 56mn
Bit rate mode : Constant
Bit rate : 384 Kbps
Channel(s) : 6 channels
Channel positions : Front: L C R, Surround: L R, LFE
Sampling rate : 48.0 KHz
Stream size : 320 MiB (14%)
Alignment : Split accross interleaves
Interleave, duration : 40 ms (1.00 video frame)
Interleave, preload duration : 500 ms

Скриншоты

Торрент перезалит 7.03.11
Показать сообщения:    

Текущее время: Сегодня 07:16

Часовой пояс: GMT



Вы не можете начинать темы
Вы не можете отвечать на сообщения
Вы не можете редактировать свои сообщения
Вы не можете удалять свои сообщения
Вы не можете голосовать в опросах
Вы не можете прикреплять файлы к сообщениям
Вы не можете скачивать файлы
Наши партнеры: интернет магазин Ивановского трикотажа textilla.ru