Важное объявление!
У Нас Все раздачи мультитрекерные, при нуле пиров в релизах, можете смело вставать на закачку!
 
Автор Сообщение

HUNTER

Стаж:
4 года 4 месяца
Сообщений:
56734

Репутация: 101

[+] [-]
Вне форума [Профиль] [ЛС]

Иллюзия обмана / Now You See Me / Extended Cut
Страна: Франция, США
Студия: Kurtzman Orci Paper Products, Second Line Stages, See Me Louisiana
Жанр: триллер, криминал, детектив
Год выпуска: 2013
Продолжительность: 02:04:48
Перевод 1: Профессиональный (дублированный) + вставки Сербина на расширенные моменты
Перевод 2: Авторский (одноголосый закадровый) Сербин
Перевод 3: Авторский (одноголосый закадровый) Гаврилов
Перевод 4: Авторский (одноголосый закадровый) Володарский
Cубтитры: русские, английские(full, SDH)
Оригинальная аудиодорожка: английский
Режиссер: Луи Летерье / Louis Leterrier
В ролях: Джесси Айзенберг, Марк Руффало, Вуди Харрельсон, Мелани Лоран, Айла Фишер, Дэйв Франко, Майкл Кейн, Морган Фриман, Майкл Келли, Коммон
Описание: Команда лучших иллюзионистов мира проворачивает дерзкие ограбления прямо во время своих шоу, играя в кошки-мышки с агентами ФБР.

Тип релиза: BDRip 1080p[HDMaNiAcS]
Контейнер: MKV
Видео: AVC, 1920x800, 12800 kbps, 23.976 fps
Аудио 1: Russian: 48 kHz, DTS, 3/2 (L,C,R,l,r) + LFE ch, ~1536.00 kbps avg |DUB+AVO|
Аудио 2: Russian: 48 kHz, DTS, 3/2 (L,C,R,l,r) + LFE ch, ~1536.00 kbps avg |Сербин|
Аудио 3: Russian: 48 kHz, DTS, 3/2 (L,C,R,l,r) + LFE ch, ~1536.00 kbps avg |Гаврилов|
Аудио 4: Russian: 48 kHz, DTS, 3/2 (L,C,R,l,r) + LFE ch, ~1536.00 kbps avg |Володарский|
Аудио 5: English: 48 kHz, DTS, 3/2 (L,C,R,l,r) + LFE ch, ~1536.00 kbps avg |Original|
Чаптеры:есть

x264 log
x264 [info]: frame I:1546 Avg QP:18.11 size:156853
x264 [info]: frame P:45467 Avg QP:18.73 size: 89469
x264 [info]: frame B:132523 Avg QP:19.85 size: 57431
x264 [info]: consecutive B-frames: 1.4% 8.6% 14.4% 19.2% 16.0% 33.0% 5.3% 1.3% 0.9%
Доп.информация
Расширенная версия длиннее театральной ~ на 9 мин.
Полный перевод - (лицензия) + вставки Ю.Сербин
Перевод Леонида Володарского доступен благодаря пользователям форума E180.
Перевод Андрея Гаврилова доступен благодаря пользователям форума HDTracker: -Джосс-, Brown15, chef&chef, Chistobaev, denis_mgn_1987, dunhill200, edsz, feldeger, fly32, foxlight, GaryH, Guyver, Hattori Hanzo, karantin66, kinobbk, kovadim, KpucTo161, Letyoha3, Loki, milocerd0v, nimph, Pain_70, rydanes, SavineX, shitman82, Skibichok, therox, v111o, vadamk, Vimann, Xerman13, YoGuRt-82, zeleniydzhan, ZeRoNe, Диммон, _MyxAmoP_ , lexal, hulahup, carter64, Tio, Role, Tehnar, Rolly Tyler, overdose, LAVR, Jiraya87, audiolubitel.
Перевод Юрия Сербина доступен благодаря пользователям форума HDClub: Dervish, GKillah, Loki1982, Luka69, tambov68, denismgn1987, ultrajeka, RAUL, u6868, Andresoff, bm9701, а так же пользователям форума E180.
MediaInfo
General
Unique ID : 224667233106159030592016299652209995582 (0xA90555CE1B227C45B9A9112700F06F3E)
Complete name : D:\Now.You.See.Me.2013.Extended.Cut.1080p.BluRay.DTS.x264-Talian-.mkv
Format : Matroska
Format version : Version 2
File size : 18.0 GiB
Duration : 2h 4mn
Overall bit rate : 20.7 Mbps
Movie name : -Talian-
Encoded date : UTC 2014-07-13 17:45:46
Writing application : mkvmerge v5.7.0 ('The Whirlwind') built on Jul 8 2012 20:08:51
Writing library : libebml v1.2.3 + libmatroska v1.3.0
Video
ID : 1
Format : AVC
Format/Info : Advanced Video Codec
Format profile : High@L4.1
Format settings, CABAC : Yes
Format settings, ReFrames : 5 frames
Codec ID : V_MPEG4/ISO/AVC
Duration : 2h 4mn
Bit rate : 12.7 Mbps
Width : 1 920 pixels
Height : 800 pixels
Display aspect ratio : 2.40:1
Frame rate : 23.976 fps
Color space : YUV
Chroma subsampling : 4:2:0
Bit depth : 8 bits
Scan type : Progressive
Bits/(Pixel*Frame) : 0.346
Stream size : 11.1 GiB (62%)
Title : HDMaNiAcS
Writing library : x264 core 135 r2345 f0c1c53
Encoding settings : cabac=1 / ref=5 / deblock=1:-3:-3 / analyse=0x3:0x113 / me=tesa / subme=11 / psy=1 / psy_rd=1.10:0.00 / mixed_ref=1 / me_range=24 / chroma_me=1 / trellis=2 / 8x8dct=1 / cqm=0 / deadzone=21,11 / fast_pskip=0 / chroma_qp_offset=-2 / threads=6 / lookahead_threads=1 / sliced_threads=0 / nr=0 / decimate=0 / interlaced=0 / bluray_compat=0 / constrained_intra=0 / bframes=8 / b_pyramid=2 / b_adapt=2 / b_bias=0 / direct=3 / weightb=1 / open_gop=0 / weightp=2 / keyint=250 / keyint_min=24 / scenecut=40 / intra_refresh=0 / rc_lookahead=250 / rc=crf / mbtree=0 / crf=18.2 / qcomp=0.70 / qpmin=0 / qpmax=69 / qpstep=4 / vbv_maxrate=38000 / vbv_bufsize=30000 / crf_max=0.0 / nal_hrd=none / ip_ratio=1.40 / pb_ratio=1.30 / aq=2:0.85
Language : English
Default : Yes
Forced : No
Audio #1
ID : 2
Format : DTS
Format/Info : Digital Theater Systems
Codec ID : A_DTS
Duration : 2h 4mn
Bit rate mode : Constant
Bit rate : 1 510 Kbps
Channel(s) : 6 channels
Channel positions : Front: L C R, Side: L R, LFE
Sampling rate : 48.0 KHz
Bit depth : 24 bits
Compression mode : Lossy
Stream size : 1.32 GiB (7%)
Title : DUB+вставки AVO-Сербин
Language : Russian
Default : Yes
Forced : No
Audio #2
ID : 3
Format : DTS
Format/Info : Digital Theater Systems
Codec ID : A_DTS
Duration : 2h 4mn
Bit rate mode : Constant
Bit rate : 1 510 Kbps
Channel(s) : 6 channels
Channel positions : Front: L C R, Side: L R, LFE
Sampling rate : 48.0 KHz
Bit depth : 24 bits
Compression mode : Lossy
Stream size : 1.32 GiB (7%)
Title : AVO-Сербин
Language : Russian
Default : No
Forced : No
Audio #3
ID : 4
Format : DTS
Format/Info : Digital Theater Systems
Codec ID : A_DTS
Duration : 2h 4mn
Bit rate mode : Constant
Bit rate : 1 510 Kbps
Channel(s) : 6 channels
Channel positions : Front: L C R, Side: L R, LFE
Sampling rate : 48.0 KHz
Bit depth : 24 bits
Compression mode : Lossy
Stream size : 1.32 GiB (7%)
Title : AVO-Гаврилов
Language : Russian
Default : No
Forced : No
Audio #4
ID : 5
Format : DTS
Format/Info : Digital Theater Systems
Codec ID : A_DTS
Duration : 2h 4mn
Bit rate mode : Constant
Bit rate : 1 510 Kbps
Channel(s) : 6 channels
Channel positions : Front: L C R, Side: L R, LFE
Sampling rate : 48.0 KHz
Bit depth : 24 bits
Compression mode : Lossy
Stream size : 1.32 GiB (7%)
Title : AVO-Володарский
Language : Russian
Default : No
Forced : No
Audio #5
ID : 6
Format : DTS
Format/Info : Digital Theater Systems
Codec ID : A_DTS
Duration : 2h 4mn
Bit rate mode : Constant
Bit rate : 1 510 Kbps
Channel(s) : 6 channels
Channel positions : Front: L C R, Side: L R, LFE
Sampling rate : 48.0 KHz
Bit depth : 24 bits
Compression mode : Lossy
Stream size : 1.32 GiB (7%)
Title : Original
Language : English
Default : No
Forced : No
Text #1
ID : 7
Format : UTF-8
Codec ID : S_TEXT/UTF8
Codec ID/Info : UTF-8 Plain Text
Title : Sub
Language : Russian
Default : No
Forced : No
Text #2
ID : 8
Format : UTF-8
Codec ID : S_TEXT/UTF8
Codec ID/Info : UTF-8 Plain Text
Title : Sub-full
Language : English
Default : No
Forced : No
Text #3
ID : 9
Format : UTF-8
Codec ID : S_TEXT/UTF8
Codec ID/Info : UTF-8 Plain Text
Title : Sub-SDH
Language : English
Default : No
Forced : No
Menu
00:00:00.000 : en:00:00:00.000
00:08:26.548 : en:00:08:26.548
00:14:41.923 : en:00:14:41.923
00:21:25.868 : en:00:21:25.868
00:32:02.003 : en:00:32:02.003
00:39:29.158 : en:00:39:29.158
00:47:07.199 : en:00:47:07.199
00:56:43.441 : en:00:56:43.441
01:04:35.371 : en:01:04:35.371
01:10:23.135 : en:01:10:23.135
01:20:04.549 : en:01:20:04.549
01:29:01.002 : en:01:29:01.002
01:35:22.883 : en:01:35:22.883
01:44:06.281 : en:01:44:06.281
01:45:47.507 : en:01:45:47.507
01:54:24.607 : en:01:54:24.607
Скриншоты
Source vs Encode




_________________
Показать сообщения:    

Текущее время: Сегодня 11:57

Часовой пояс: GMT



Вы не можете начинать темы
Вы не можете отвечать на сообщения
Вы не можете редактировать свои сообщения
Вы не можете удалять свои сообщения
Вы не можете голосовать в опросах
Вы не можете прикреплять файлы к сообщениям
Вы не можете скачивать файлы