Важное объявление!
У Нас Все раздачи мультитрекерные, при нуле пиров в релизах, можете смело вставать на закачку!
 
Автор Сообщение

димитри37

Стаж:
3 года 8 месяцев
Сообщений:
1237

Репутация: 127

[+] [-]
Вне форума [Профиль] [ЛС]

Икона
Жанр: драма
Год выпуска: 2012
Продолжительность: 01:08:59
Выпущено: Грузия, Россия
Озвучивание: оригинальное (русский)
Режиссёры: Заза Мерабишвили, Джаба Руадзе
Сценарий: Заза Мерабишвили, Джаба Руадзе, Анна Юрова
В ролях: Николоз Чхиквадзе, Нато Гагнидзе, Екатерина Редникова, Леван Хурция, Анатолий Пашинин, Андрей Панин, Борис Щербаков, Виктор Васильев, Виктория Романенко, Зинаида Бородкина, Картлос Марадашвили, Саба Цехелашвили, Нина Менабдашвили, Натия Макалатия, Александрэ Гванцеладзе, Ника Тавадзе, Русудан Кобиашвили
Описание: Фильм состоит из двух частей. Их связывает одна тонкая художественная деталь - икона Святого Георгия.
"Тбилиси – Москва". 35-летняя грузинка Лали, мать-одиночка, воспитывает 5-летнего Георгия. Из-за полученной в детстве травмы головы она вынуждена ехать в Москву на лечение. В Москве Лали встречается со своей давней подругой Ниной, которой спас жизнь ее отец, когда они были в пионерском лагере. Нина делает все для спасения Лали…
"В поисках Святого Георгия". Священник Грузинской Православной церкви отец Дмитрий отправляется в Москву, чтобы найти и вернуть икону Святого Георгия, из-за которой большевиками во время смуты были расстреляны церковнослужители.

Качество видео: HDTVRip
Формат видео: AVI
Видео: XviD 720x304 (16:9) 25.0fps Bit rate 1280Kbps b/p 0.234
Аудио: AC3 48.0KHz 2ch 224 Kbps

MediaInfo

General
Complete name : E:\torrent\Icona_HDTVRip.avi
Format : AVI
Format/Info : Audio Video Interleave
File size : 747 MiB
Duration : 1h 8mn
Overall bit rate : 1 513 Kbps
Writing library : VirtualDub build 32842/release
Video
ID : 0
Format : MPEG-4 Visual
Format profile : Advanced Simple@L5
Format settings, BVOP : Yes
Format settings, QPel : No
Format settings, GMC : No warppoints
Format settings, Matrix : Default (H.263)
Codec ID : XVID
Codec ID/Hint : XviD
Duration : 1h 8mn
Bit rate : 1 280 Kbps
Width : 720 pixels
Height : 304 pixels
Display aspect ratio : 2.35:1
Frame rate : 25.000 fps
Color space : YUV
Chroma subsampling : 4:2:0
Bit depth : 8 bits
Scan type : Progressive
Bits/(Pixel*Frame) : 0.234
Stream size : 631 MiB (85%)
Writing library : XviD 1.2.1 (UTC 2008-12-04)
Audio
ID : 1
Format : AC-3
Format/Info : Audio Coding 3
Mode extension : CM (complete main)
Codec ID : 2000
Duration : 1h 8mn
Bit rate mode : Constant
Bit rate : 224 Kbps
Channel(s) : 2 channels
Channel positions : Front: L R
Sampling rate : 48.0 KHz
Bit depth : 16 bits
Stream size : 111 MiB (15%)
Alignment : Aligned on interleaves
Interleave, duration : 40 ms (1.00 video frame)
Interleave, preload duration : 512 ms

Скриншот c названием фильма

Скриншоты


-
Показать сообщения:    

Текущее время: Сегодня 14:24

Часовой пояс: GMT



Вы не можете начинать темы
Вы не можете отвечать на сообщения
Вы не можете редактировать свои сообщения
Вы не можете удалять свои сообщения
Вы не можете голосовать в опросах
Вы не можете прикреплять файлы к сообщениям
Вы не можете скачивать файлы