Важное объявление!
У Нас Все раздачи мультитрекерные, при нуле пиров в релизах, можете смело вставать на закачку!
 
Автор Сообщение

HUNTER

Стаж:
4 года 4 месяца
Сообщений:
56765

Репутация: 101

[+] [-]
Вне форума [Профиль] [ЛС]

Изобретение лжи / The Invention of Lying-
Год выпуска: 2009
Страна: США
Жанр: комедия, мелодрама
Продолжительность: 01:39:28
Перевод: Профессиональный (полное дублирование) R5
+ Авторский (одноголосый закадровый) А.Карповский
+ Oдноголосый закадровый, seqw0
Оригинальная звуковая дорожка: English
Субтитры: Russian (Forced), Russian, Ukrainian, English, English (SDH)-Режиссер: Рики Джервэйс / Ricky Gervais, Мэттью Робинсон / Matthew Robinson
В ролях: Рики Джервэйс, Дженнифер Гарнер, Джона Хилл, Луис С.К., Джефри Тэмбор, Фионнула Флэнаган, Роб Лоу, Тина Фей, Донна Сорбелло, Стефани Марч
О фильме: Главный герой Марк живет в мире где все говорят правду и только правду, здесь не сущестует лжи. Сам же он толстый неудачник, которого вот-вот уволят с работы. После чего его домовладелец дает ему 1 день чтобы найти деньги на оплату жилья. Марк решается снять свои последние 300 долларов со счета, но вдруг что-то происходит в его голове и в банке он, соврав, говорит что хочет снять 800 долларов, и ему их выдают. После чего Марк потихоньку начинает понимать все, и начинает пользоваться этим чтобы сделать свою жизнь и жизнь людей лучше...
CtrlHD!
На основе релиза:
Формат: MKV
Источник: The Invention of Lying 2009 1080p GBR Blu-ray VC-1 DTS-HD MA 5.1 (thx to kukushka)
Видео: 1280x690 at 23.976 fps, x264, ~11500 kbps
Аудио #01: Russian: 48 kHz, AC3, 3/2 (L,C,R,l,r) + LFE ch, ~384.00 kbps avg |Дубляж, R5|
Аудио #02: Russian: 48 kHz, AC3, 3/2 (L,C,R,l,r) + LFE ch, ~384.00 kbps avg |Oдноголосый закадровый, А.Карповский|
Аудио #03: Russian: 48 kHz, DTS, 48 kHz, AC3, 3/2 (L,C,R,l,r) + LFE ch, ~1509.00 kbps avg |Oдноголосый закадровый, seqw0|
Аудио #04: Ukrainian: 48 kHz, AC3, 2/0 (L,R) ch, ~192.00 kbps avg |Двухголосый закадровый, НЛО.TV|
Аудио #05: English: 48 kHz, DTS, 48 kHz, AC3, 3/2 (L,C,R,l,r) + LFE ch, ~1509.00 kbps avg
Семпл-

Source vs Encode




-

mInfo

Формат : Matroska
Версия формата : Version 4 / Version 2
Размер файла : 10,8 Гбайт
Продолжительность : 1 ч. 39 м.
Общий поток : 15,5 Мбит/сек
Название фильма : The Invention of Lying (2009) - Release for HDCLUB
Дата кодирования : UTC 2014-11-16 10:17:31
Программа кодирования : mkvmerge v6.1.0 ('Old Devil') built on Mar 2 2013 14:32:37
Библиотека кодирования : libebml v1.3.0 + libmatroska v1.4.0
Видео
Идентификатор : 1
Формат : AVC
Формат/Информация : Advanced Video Codec
Профиль формата : High@L4.1
Параметр CABAC формата : Да
Параметр ReFrames формата : 9 кадров
Идентификатор кодека : V_MPEG4/ISO/AVC
Продолжительность : 1 ч. 39 м.
Битрейт : 11,5 Мбит/сек
Ширина : 1280 пикселей
Высота : 690 пикселей
Соотношение сторон : 1,85:1
Режим частоты кадров : Постоянный
Частота кадров : 23,976 кадра/сек
Цветовое пространство : YUV
Субдискретизация насыщенности : 4:2:0
Битовая глубина : 8 бит
Тип развёртки : Прогрессивная
Бит/(Пиксели*Кадры) : 0.543
Размер потока : 7,79 Гбайт (72%)
Библиотека кодирования : x264 core 116 r2037 f8ebd4a
Настройки программы : cabac=1 / ref=9 / deblock=1:-3:-3 / analyse=0x3:0x133 / me=tesa / subme=10 / psy=1 / psy_rd=1.00:0.00 / mixed_ref=1 / me_range=48 / chroma_me=1 / trellis=2 / 8x8dct=1 / cqm=0 / deadzone=21,11 / fast_pskip=0 / chroma_qp_offset=-2 / threads=18 / sliced_threads=0 / nr=0 / decimate=1 / interlaced=0 / bluray_compat=0 / constrained_intra=0 / bframes=8 / b_pyramid=2 / b_adapt=2 / b_bias=0 / direct=3 / weightb=1 / open_gop=0 / weightp=2 / keyint=250 / keyint_min=23 / scenecut=40 / intra_refresh=0 / rc_lookahead=60 / rc=2pass / mbtree=1 / bitrate=11500 / ratetol=1.0 / qcomp=0.70 / qpmin=0 / qpmax=69 / qpstep=4 / cplxblur=20.0 / qblur=0.5 / vbv_maxrate=40000 / vbv_bufsize=30000 / nal_hrd=none / ip_ratio=1.40 / aq=1:0.80
Язык : English
Default : Да
Forced : Нет
Аудио #1
Идентификатор : 2
Формат : AC-3
Формат/Информация : Audio Coding 3
Расширение режима : CM (complete main)
Параметр Endianness формата : Big
Идентификатор кодека : A_AC3
Продолжительность : 1 ч. 39 м.
Вид битрейта : Постоянный
Битрейт : 384 Кбит/сек
Каналы : 6 каналов
Расположение каналов : Front: L C R, Side: L R, LFE
Частота : 48,0 КГц
Битовая глубина : 16 бит
Метод сжатия : С потерями
Размер потока : 274 Мбайт (2%)
Заголовок : |Дубляж, R5|
Язык : Russian
Default : Да
Forced : Нет
Аудио #2
Идентификатор : 3
Формат : AC-3
Формат/Информация : Audio Coding 3
Расширение режима : CM (complete main)
Параметр Endianness формата : Big
Идентификатор кодека : A_AC3
Продолжительность : 1 ч. 39 м.
Вид битрейта : Постоянный
Битрейт : 384 Кбит/сек
Каналы : 6 каналов
Расположение каналов : Front: L C R, Side: L R, LFE
Частота : 48,0 КГц
Битовая глубина : 16 бит
Метод сжатия : С потерями
Размер потока : 274 Мбайт (2%)
Заголовок : |Oдноголосый закадровый, А.Карповский|
Язык : Russian
Default : Нет
Forced : Нет
Аудио #3
Идентификатор : 4
Формат : DTS
Формат/Информация : Digital Theater Systems
Режим : 16
Параметр Endianness формата : Big
Идентификатор кодека : A_DTS
Продолжительность : 1 ч. 39 м.
Вид битрейта : Постоянный
Битрейт : 1510 Кбит/сек
Каналы : 6 каналов
Расположение каналов : Front: L C R, Side: L R, LFE
Частота : 48,0 КГц
Битовая глубина : 24 бит
Метод сжатия : С потерями
Размер потока : 1,05 Гбайт (10%)
Заголовок : |Oдноголосый закадровый, seqw0|
Язык : Russian
Default : Нет
Forced : Нет
Аудио #4
Идентификатор : 5
Формат : AC-3
Формат/Информация : Audio Coding 3
Расширение режима : CM (complete main)
Параметр Endianness формата : Big
Идентификатор кодека : A_AC3
Продолжительность : 1 ч. 39 м.
Вид битрейта : Постоянный
Битрейт : 192 Кбит/сек
Каналы : 2 канала
Расположение каналов : Front: L R
Частота : 48,0 КГц
Битовая глубина : 16 бит
Метод сжатия : С потерями
Размер потока : 137 Мбайт (1%)
Заголовок : |Двухголосый закадровый, НЛО.TV|
Язык : Ukrainian
Default : Нет
Forced : Нет
Аудио #5
Идентификатор : 6
Формат : DTS
Формат/Информация : Digital Theater Systems
Режим : 16
Параметр Endianness формата : Big
Идентификатор кодека : A_DTS
Продолжительность : 1 ч. 39 м.
Вид битрейта : Постоянный
Битрейт : 1509 Кбит/сек
Каналы : 6 каналов
Расположение каналов : Front: L C R, Side: L R, LFE
Частота : 48,0 КГц
Битовая глубина : 24 бит
Метод сжатия : С потерями
Размер потока : 1,05 Гбайт (10%)
Язык : English
Default : Нет
Forced : Нет
Текст #1
Идентификатор : 7
Формат : UTF-8
Идентификатор кодека : S_TEXT/UTF8
Идентификатор кодека/Информация : UTF-8 Plain Text
Заголовок : Forced
Язык : Russian
Default : Да
Forced : Нет
Текст #2
Идентификатор : 8
Формат : UTF-8
Идентификатор кодека : S_TEXT/UTF8
Идентификатор кодека/Информация : UTF-8 Plain Text
Язык : Russian
Default : Нет
Forced : Нет
Текст #3
Идентификатор : 9
Формат : UTF-8
Идентификатор кодека : S_TEXT/UTF8
Идентификатор кодека/Информация : UTF-8 Plain Text
Язык : Ukrainian
Default : Нет
Forced : Нет
Текст #4
Идентификатор : 10
Формат : UTF-8
Идентификатор кодека : S_TEXT/UTF8
Идентификатор кодека/Информация : UTF-8 Plain Text
Язык : English
Default : Нет
Forced : Нет
Текст #5
Идентификатор : 11
Формат : UTF-8
Идентификатор кодека : S_TEXT/UTF8
Идентификатор кодека/Информация : UTF-8 Plain Text
Заголовок : SDH
Язык : English
Default : Нет
Forced : Нет
Меню
00:00:00.000 : en:Absolute Truth
00:04:34.983 : en:Way Out of Your League
00:12:40.802 : en:On With Your Work
00:16:21.981 : en:Always Hated You
00:20:36.944 : en:The First
00:25:33.699 : en:Unless We Have Sex
00:27:45.747 : en:Can't Afford My Bribe
00:30:21.778 : en:We Have A Winner
00:32:20.105 : en:Encouraging Words
00:35:59.949 : en:Best Screenplay Ever
00:42:50.568 : en:Half the Genetic Code
00:45:53.793 : en:After You Die
00:52:40.741 : en:Tell What You Know
00:56:24.715 : en:Revealed Word
01:03:33.184 : en:Mansions For Everyone
01:05:40.770 : en:Look Beyond
01:10:28.182 : en:Clipped Coupon
01:14:40.059 : en:Near-Perfect Match
01:20:58.062 : en:Still a Loser
01:24:56.758 : en:So Much More
01:27:08.014 : en:What the Man Wants
01:29:02.337 : en:What the Woman Wants
01:34:30.665 : en:End Credits

-
Цитата:
Цитата:

* За звуковую дорожку seqw0 спасибо Serg1004.

_________________
Показать сообщения:    

Текущее время: Сегодня 04:26

Часовой пояс: GMT



Вы не можете начинать темы
Вы не можете отвечать на сообщения
Вы не можете редактировать свои сообщения
Вы не можете удалять свои сообщения
Вы не можете голосовать в опросах
Вы не можете прикреплять файлы к сообщениям
Вы не можете скачивать файлы