Важное объявление!
У Нас Все раздачи мультитрекерные, при нуле пиров в релизах, можете смело вставать на закачку!
 
Автор Сообщение

HUNTER

Стаж:
4 года 4 месяца
Сообщений:
56790

Репутация: 101

[+] [-]
Вне форума [Профиль] [ЛС]

Измерения / Dimensions
Страна: Великобритания
Студия: Sculptures of Dazzling Complexity Ltd
Жанр: Фантастика, драма
Год выпуска: 2011
Продолжительность: 01:40:40
Перевод: Субтитры (вшитые, отключаемые)
Cубтитры: русские, английские
Оригинальная аудиодорожка: английский
Режиссер: Слоун У’Рен / Sloane U’Ren
В ролях: Генри Ллойд-Хьюз, Камилла Разерфорд, Патрик Годфри, Оливия Ллевелин, Шон Харт, Эдвард Халстед, Ричард Хеффер, Джорджина Рич, Джеймс Грин
Описание: Если бы вы могли путешествовать во времени и вернуться в мгновения своего детства, какое время вы бы выбрали – и какую цену готовы были бы за это заплатить? Стивен, блестящий молодой ученый из Кембриджа, готов на все, чтобы исправить трагическую случайность прошлого, изменившую всю его жизнь. Одержимый идеей параллельных Вселенных, он ищет способ вернуться в счастливые годы, которые навсегда канули в небытие. Можно ли победить время, самую сильную из стихий? Есть ли преграды для настоящей любви? Или же она неподвластна ничему на свете?
Сэмпл: http://rusfolder.com/41659722
Тип релиза: WEB-DL 1080p
Контейнер: MKV
Видео: AVC, NTSC, 3967 kbps, 2,35:1, 23,976 fps
Аудио: AC3, 6 channels, 384 kbps, 48 kHz, English
Формат субтитров: softsub (SRT)

MediaInfo

Общее
Уникальный идентификатор : 219685162587081263632773816066593230031 (0xA545D2C38D995B8CA446D4F039078CCF)
Полное имя : D:\Dvar\Dimensions\2011 - Dimensions (WEB-DL 1080p).mkv
Формат : Matroska
Версия формата : Version 4 / Version 2
Размер файла : 3,12 Гбайт
Продолжительность : 1 ч. 40 м.
Общий поток : 4439 Кбит/сек
Дата кодирования : UTC 2014-09-06 16:36:28
Программа кодирования : mkvmerge v6.0.0 ('Coming Up For Air') built on Jan 20 2013 09:52:00
Библиотека кодирования : libebml v1.3.0 + libmatroska v1.4.0
Видео
Идентификатор : 1
Формат : AVC
Формат/Информация : Advanced Video Codec
Профиль формата : High@L4.0
Параметр CABAC формата : Да
Параметр ReFrames формата : 5 кадров
Идентификатор кодека : V_MPEG4/ISO/AVC
Продолжительность : 1 ч. 40 м.
Битрейт : 3967 Кбит/сек
Ширина : 1920 пикселей
Высота : 816 пикселей
Соотношение сторон : 2,35:1
Режим частоты кадров : Постоянный
Частота кадров : 23,976 кадра/сек
Цветовое пространство : YUV
Субдискретизация насыщенности : 4:2:0
Битовая глубина : 8 бит
Тип развёртки : Прогрессивная
Бит/(Пиксели*Кадры) : 0.106
Размер потока : 2,79 Гбайт (89%)
Язык : English
Default : Да
Forced : Нет
Основные цвета : BT.709
Характеристики трансфера : BT.709
Коэффициенты матрицы : BT.709
Аудио
Идентификатор : 2
Формат : AC-3
Формат/Информация : Audio Coding 3
Расширение режима : CM (complete main)
Параметр Endianness формата : Big
Идентификатор кодека : A_AC3
Продолжительность : 1 ч. 40 м.
Вид битрейта : Постоянный
Битрейт : 384 Кбит/сек
Каналы : 6 каналов
Расположение каналов : Front: L C R, Side: L R, LFE
Частота : 48,0 КГц
Битовая глубина : 16 бит
Метод сжатия : С потерями
Размер потока : 276 Мбайт (9%)
Язык : English
Default : Нет
Forced : Нет
Текст #1
Идентификатор : 3
Формат : UTF-8
Идентификатор кодека : S_TEXT/UTF8
Идентификатор кодека/Информация : UTF-8 Plain Text
Язык : Russian
Default : Да
Forced : Нет
Текст #2
Идентификатор : 4
Формат : UTF-8
Идентификатор кодека : S_TEXT/UTF8
Идентификатор кодека/Информация : UTF-8 Plain Text
Язык : English
Default : Нет
Forced : Нет
Меню
00:00:00.000 : en:Chapter 1
00:10:05.000 : en:Chapter 2
00:20:03.000 : en:Chapter 3
00:29:48.000 : en:Chapter 4
00:40:28.000 : en:Chapter 5
00:49:31.000 : en:Chapter 6
01:00:17.000 : en:Chapter 7
01:09:59.000 : en:Chapter 8
01:19:31.000 : en:Chapter 9
01:29:33.000 : en:Chapter 10
01:37:00.000 : en:End Credits

Скриншоты с названием фильма

Скриншоты


_________________
Показать сообщения:    

Текущее время: Сегодня 09:51

Часовой пояс: GMT



Вы не можете начинать темы
Вы не можете отвечать на сообщения
Вы не можете редактировать свои сообщения
Вы не можете удалять свои сообщения
Вы не можете голосовать в опросах
Вы не можете прикреплять файлы к сообщениям
Вы не можете скачивать файлы