Важное объявление!
У Нас Все раздачи мультитрекерные, при нуле пиров в релизах, можете смело вставать на закачку!
 
Автор Сообщение

HUNTER

Стаж:
4 года 4 месяца
Сообщений:
56719

Репутация: 101

[+] [-]
Вне форума [Профиль] [ЛС]

Изгои из Бэйтауна / The Baytown Outlaws-«A Southern Whip-Ass Extravaganza!»-
Год выпуска: 2012
Страна: США
Жанр: боевик, комедия, криминал
Продолжительность: 01:38:38
Перевод: Любительский (многоголосый закадровый) [ViruseProject]-Режиссер: Бэрри Баттлс
Сценарий: Бэрри Баттлс, Гриффин Худ
Продюсер: Билл Перкинс, Роберт Тейтел, Томас Дж. Буш
Оператор: Дэвид Б. МакФарланд
Композитор: Константинос Кристидес, Кристофер Янг
Художник: Монро Келли, Дэна Эмбри, Laura Groesbeck
Монтаж: Шон Валла-В ролях: Андре Брогер / Andre Braugher (Sherriff Henry Millard), Клейн Кроуфорд / Clayne Crawford (Brick Oodie), Дэниэл Кадмор / Daniel Cudmore (Lincoln Oodie), Трэвис Фиммел / Travis Fimmel (McQueen Oodie), Ева Лонгория / Eva Longoria (Celeste), Пол Уэсли / Paul Wesley (Reese), Билли Боб Торнтон / Billy Bob Thornton , Томас Броди Сэнгстер / Thomas Sangster (Rob), Зои Белл / Zoe Bell (Rose), Натали Мартинез / Natalie Martinez (Ariana)
-Описание: События развернутся вокруг трех братьев, которые всегда любили конфликты и хорошо подраться. Их нанимают для того, чтобы вернуть одной бабушке похищенного паренька-инвалида. Парни входят во вкус и проливают реки чужой крови, в основном похитителей.-Бюджет: $4 000 000
Премьера (мир): 29 августа 2012-Рейтинг MPAA: Лицам до 17 лет обязательно присутствие взрослого
Рейтинг:-Качество: HDRip
Формат: AVI
Видео кодек: XviD
Аудио кодеk: AC3
Видео: 720x304 (2.37:1), 23.976 fps, XviD build 50 ~1648 kbps avg, 0.31 bit/pixel
Аудио: Russian: 48 kHz, AC3 Dolby Digital, 3/2 (L,C,R,l,r) + LFE ch, ~320 kbps
English: 48 kHz, MPEG Layer 3, 2 ch, ~128.00 kbps avg
-Скачать: Сэмпл
Релиз группы: -

МедиаИнфо

Код: copyText_writeLink('this.parentNode.parentNode.nextSibling.nextSibling'); General
Complete name : Izgoi.iz.Bjejtauna.2012.HDRip.avi
Format : AVI
Format/Info : Audio Video Interleave
File size : 1.46 GiB
Duration : 1h 38mn
Overall bit rate : 2 112 Kbps
Writing application : VirtualDubMod 1.5.10.2 (build 2540/release)
Writing library : VirtualDubMod build 2540/release
Video
ID : 0
Format : MPEG-4 Visual
Format profile : Advanced Simple@L5
Format settings, BVOP : Yes
Format settings, QPel : No
Format settings, GMC : No warppoints
Format settings, Matrix : Default (H.263)
Codec ID : XVID
Codec ID/Hint : XviD
Duration : 1h 38mn
Bit rate : 1 650 Kbps
Width : 720 pixels
Height : 304 pixels
Display aspect ratio : 2.35:1
Frame rate : 23.976 fps
Color space : YUV
Chroma subsampling : 4:2:0
Bit depth : 8 bits
Scan type : Progressive
Bits/(Pixel*Frame) : 0.314
Stream size : 1.14 GiB (78%)
Writing library : XviD 1.2.1 (UTC 2008-12-04)
Audio #1
ID : 1
Format : AC-3
Format/Info : Audio Coding 3
Mode extension : CM (complete main)
Codec ID : 2000
Duration : 1h 38mn
Bit rate mode : Constant
Bit rate : 320 Kbps
Channel(s) : 6 channels
Channel positions : Front: L C R, Side: L R, LFE
Sampling rate : 48.0 KHz
Bit depth : 16 bits
Stream size : 226 MiB (15%)
Alignment : Split accross interleaves
Interleave, duration : 42 ms (1.00 video frame)
Interleave, preload duration : 500 ms
Audio #2
ID : 2
Format : MPEG Audio
Format version : Version 1
Format profile : Layer 3
Mode : Joint stereo
Codec ID : 55
Codec ID/Hint : MP3
Duration : 1h 38mn
Bit rate mode : Constant
Bit rate : 128 Kbps
Channel(s) : 2 channels
Sampling rate : 48.0 KHz
Stream size : 90.3 MiB (6%)
Alignment : Aligned on interleaves
Interleave, duration : 42 ms (1.00 video frame)
Interleave, preload duration : 504 ms
-

скриншоты


--

_________________
Показать сообщения:    

Текущее время: Сегодня 03:44

Часовой пояс: GMT



Вы не можете начинать темы
Вы не можете отвечать на сообщения
Вы не можете редактировать свои сообщения
Вы не можете удалять свои сообщения
Вы не можете голосовать в опросах
Вы не можете прикреплять файлы к сообщениям
Вы не можете скачивать файлы