Важное объявление!
У Нас Все раздачи мультитрекерные, при нуле пиров в релизах, можете смело вставать на закачку!
 
Автор Сообщение

HUNTER

Стаж:
4 года 4 месяца
Сообщений:
56755

Репутация: 101

[+] [-]
Вне форума [Профиль] [ЛС]

Из пекла / Out of the Furnace-
Страна: США, Великобритания
Студия: Relativity Media
Жанр: триллер, драма, криминал
Год выпуска: 2013
Продолжительность: 01:56:07-Перевод: Одноголосый закадровый Д. Есарев
Перевод 2: Любительский (двухголосый закадровый) Jimmy J.
Перевод 3: Любительский (двухголосый закадровый) "Paradox"
Cубтитры: Rus (Airbender131090), Eng, Eng (BD).
Оригинальная аудиодорожка: английский-Режиссер: Скотт Купер / Scott Cooper
В ролях: Кристиан Бэйл, Вуди Харрельсон, Кейси Аффлек, Форест Уитакер, Уиллем Дефо, Зои Салдана, Сэм Шепард, Дендри Тейлор, Карл Киарфалио, Нэнси Моссер
Описание: Когда Родни Бэйз таинственно исчезает, а правоохранительные органы при этом действуют недостаточно быстро, его старший брат Рассел берет дело в свои руки, чтобы добиться справедливости.-Рип от EbP
Сэмпл: sendfile→, rusfolder→
Тип релиза: BDRip 1080p
Контейнер: MKV
Видео: 1920 x 800 (2.400), x264, CRF, L4.1, 23.976 fps, 21.3 Mbps
Аудио: 48 kHz, DTS 5.1 - 1536 kbps |AVO, Д. Есарев|
Аудио 2: 48 kHz, DD 5.1 - 448 kbps |DVO, Jimmy J.|
Аудио 3: 48 kHz, DD 2.0 - 224 kbps |DVO, Студия "Paradox"|
Аудио 4: 48 kHz, DTS 5.1 - 1536 kbps |Оригинал|

MediaInfo

Полное имя : Out.of.the.Furnace.2013.1080p.BluRay.DD5.1.x264-EbP.3xRus.Eng.mkv
Формат : Matroska
Версия формата : Version 4 / Version 2
Размер файла : 20.7 GiB
Продолжительность : 1h 56mn
Общий поток : 25.5 Mbps
Название фильма : Out of the Furnace (2013) | Rip by EbP
Дата кодирования : UTC 2014-04-08 13:46:55
Программа кодирования : mkvmerge v6.5.0 ('Isn't she lovely') built on Oct 20 2013 12:50:05
Библиотека кодирования : libebml v1.3.0 + libmatroska v1.4.1
Video
Идентификатор : 1
Формат : AVC
Формат/Информация : Advanced Video Codec
Профиль формата : High@L4.1
Параметр CABAC формата : Yes
Параметр ReFrames формата : 5 frames
Идентификатор кодека : V_MPEG4/ISO/AVC
Продолжительность : 1h 56mn
Битрейт : 21.3 Mbps
Ширина : 1 920 pixels
Высота : 800 pixels
Соотношение сторон : 2.40:1
Режим частоты кадров : Constant
Частота кадров : 23.976 fps
Цветовое пространство : YUV
Субдискретизация насыщенности : 4:2:0
Битовая глубина : 8 bits
Тип развёртки : Progressive
Бит/(Пиксели*Кадры) : 0.578
Размер потока : 17.3 GiB (84%)
Заголовок : Out of the Furnace (2013) by Djex
Библиотека кодирования : x264 core 140 r2377 1ca7bb9
Настройки программы : cabac=1 / ref=5 / deblock=1:-3:-3 / analyse=0x3:0x113 / me=tesa / subme=10 / psy=1 / psy_rd=1.10:0.00 / mixed_ref=1 / me_range=16 / chroma_me=1 / trellis=2 / 8x8dct=1 / cqm=0 / deadzone=21,11 / fast_pskip=0 / chroma_qp_offset=-2 / threads=12 / lookahead_threads=2 / sliced_threads=0 / nr=0 / decimate=0 / interlaced=0 / bluray_compat=0 / constrained_intra=0 / bframes=9 / b_pyramid=2 / b_adapt=2 / b_bias=0 / direct=3 / weightb=1 / open_gop=0 / weightp=2 / keyint=250 / keyint_min=23 / scenecut=40 / intra_refresh=0 / rc=crf / mbtree=0 / crf=16.5 / qcomp=0.70 / qpmin=0 / qpmax=69 / qpstep=4 / ip_ratio=1.30 / pb_ratio=1.20 / aq=1:0.70 / zones=156197,167064,crf=30
Язык : English
Default : Yes
Forced : No
Audio #1
Идентификатор : 2
Формат : DTS
Формат/Информация : Digital Theater Systems
Режим : 16
Параметр Endianness формата : Big
Идентификатор кодека : A_DTS
Продолжительность : 1h 56mn
Вид битрейта : Constant
Битрейт : 1 509 Kbps
Каналы : 6 channels
Расположение каналов : Front: L C R, Side: L R, LFE
Частота : 48.0 KHz
Битовая глубина : 24 bits
Метод сжатия : Lossy
Размер потока : 1.22 GiB (6%)
Заголовок : DTS 5.1 - 1536 kbps |AVO, Д. Есарев|
Язык : Russian
Default : Yes
Forced : No
Audio #2
Идентификатор : 3
Формат : AC-3
Формат/Информация : Audio Coding 3
Расширение режима : CM (complete main)
Параметр Endianness формата : Big
Идентификатор кодека : A_AC3
Продолжительность : 1h 56mn
Вид битрейта : Constant
Битрейт : 448 Kbps
Каналы : 6 channels
Расположение каналов : Front: L C R, Side: L R, LFE
Частота : 48.0 KHz
Битовая глубина : 16 bits
Метод сжатия : Lossy
Размер потока : 372 MiB (2%)
Заголовок : DD 5.1 - 448 kbps |DVO, Jimmy J.|
Язык : Russian
Default : No
Forced : No
Audio #3
Идентификатор : 4
Формат : AC-3
Формат/Информация : Audio Coding 3
Расширение режима : CM (complete main)
Параметр Endianness формата : Big
Идентификатор кодека : A_AC3
Продолжительность : 1h 56mn
Вид битрейта : Constant
Битрейт : 224 Kbps
Каналы : 2 channels
Расположение каналов : Front: L R
Частота : 48.0 KHz
Битовая глубина : 16 bits
Метод сжатия : Lossy
Размер потока : 186 MiB (1%)
Заголовок : DD 2.0 - 224 kbps |DVO, "Paradox"|
Язык : Russian
Default : No
Forced : No
Audio #4
Идентификатор : 5
Формат : DTS
Формат/Информация : Digital Theater Systems
Режим : 16
Параметр Endianness формата : Big
Идентификатор кодека : A_DTS
Продолжительность : 1h 56mn
Вид битрейта : Constant
Битрейт : 1 509 Kbps
Каналы : 6 channels
Расположение каналов : Front: L C R, Side: L R, LFE
Частота : 48.0 KHz
Битовая глубина : 24 bits
Метод сжатия : Lossy
Размер потока : 1.22 GiB (6%)
Заголовок : DTS 5.1 - 1536 kbps |Оригинал|
Язык : English
Default : No
Forced : No
Text #1
Идентификатор : 6
Формат : UTF-8
Идентификатор кодека : S_TEXT/UTF8
Идентификатор кодека/Информация : UTF-8 Plain Text
Заголовок : Airbender131090
Язык : Russian
Default : No
Forced : No
Text #2
Идентификатор : 7
Формат : UTF-8
Идентификатор кодека : S_TEXT/UTF8
Идентификатор кодека/Информация : UTF-8 Plain Text
Язык : English
Default : No
Forced : No
Text #3
Идентификатор : 8
Формат : PGS
Режим смешивания : zlib
Идентификатор кодека : S_HDMV/PGS
Идентификатор кодека/Информация : The same subtitle format used on BDs/HD-DVDs
Язык : English
Default : No
Forced : No
Menu
00:00:00.000 : en:00:00:00.000
00:04:54.669 : en:00:04:54.669
00:09:02.709 : en:00:09:02.709
00:12:11.105 : en:00:12:11.105
00:15:39.856 : en:00:15:39.856
00:17:55.074 : en:00:17:55.074
00:21:13.397 : en:00:21:13.397
00:23:40.961 : en:00:23:40.961
00:28:09.646 : en:00:28:09.646
00:33:17.162 : en:00:33:17.162
00:39:15.353 : en:00:39:15.353
00:45:26.223 : en:00:45:26.223
00:53:10.020 : en:00:53:10.020
01:01:09.666 : en:01:01:09.666
01:05:31.886 : en:01:05:31.886
01:10:08.579 : en:01:10:08.579
01:12:25.383 : en:01:12:25.383
01:21:45.192 : en:01:21:45.192
01:27:18.024 : en:01:27:18.024
01:30:31.593 : en:01:30:31.593
01:34:18.736 : en:01:34:18.736
01:37:58.039 : en:01:37:58.039
01:42:51.916 : en:01:42:51.916
01:47:49.296 : en:01:47:49.296

Скриншоты

Source | EbP | Scene




_________________
Показать сообщения:    

Текущее время: Сегодня 15:09

Часовой пояс: GMT



Вы не можете начинать темы
Вы не можете отвечать на сообщения
Вы не можете редактировать свои сообщения
Вы не можете удалять свои сообщения
Вы не можете голосовать в опросах
Вы не можете прикреплять файлы к сообщениям
Вы не можете скачивать файлы